Pościg / The Chase (1994) [Lektor] | Martin Sherman | Planet der Affen

Скачать через торрент [VIDEO] Алиса в Зазеркалье Alice Through the Looking Glass бесплатно русская версия torrent активатор

Статистика раздачи
Размер:  1.69 GB   |    Зарегистрирован:  1 год 7 месяцев   |    .torrent скачан:  36 раз   |   
Раздают:  1  
   
загрузка...
 
Автор Сообщение

Galfimbul

avatar Galfimbul


<span class="post-font-serif1">Алиса в Зазеркалье / Alice Through the Looking Glass</span>

<span class="post-font-serif1">Год выпуска: 2016
Страна: США, Великобритания
Жанр: фэнтези, приключения, семейный
Продолжительность: 01:52:57
Перевод №1: русский Профессиональный (полное дублирование) Blu-ray CEE
Перевод №2: украинский Профессиональный (полное дублирование) iTunes
Оригинальная дорожка: Есть
Cубтитры: русские (Forced, iTunes), украинские (Forced iTunes), английские (Forced iTunes, iTunes)</span>
<span class="post-font-serif1">Режиссер: Джеймс Бобин / James Bobin</span>
<span class="post-font-serif1">В ролях: Миа Васиковска (Alice Kingsleigh), Джонни Депп (Hatter Tarrant Hightopp), Хелена Бонем Картер (Iracebeth), Энн Хэтэуэй (Mirana), Саша Барон Коэн (Time), Рис Иванс (Zanik Hightopp), Мэтт Лукас (Tweedledee / Tweedledum), Линдси Дункан (Helen Kingsleigh), Лео Билл (Hamish), Джеральдин Джеймс (Lady Ascot), Эндрю Скотт (Dr. Addison Bennett), Ричард Армитедж (King Oleron) и другие .</span>
<span class="post-font-serif1">Описание: На этот раз главной героине предстоит отправиться в путешествие во времени, полное неожиданностей и ярких открытий, чтобы спасти своего друга, Безумного Шляпника..</span>
<span class="post-font-serif1">Релиз группы </span>
<span class="post-font-serif1">Джонни Депп, Хелена Бонем-Картер, Алан Рикман, Саша Барон Коэн и Тимоти Сполл играли в фильме Тима Бёртона «Суинни Тодд, демон-парикмахер с Флит-стрит» (2007).
Седьмой и последний фильм, в котором вместе снялись Алан Рикман и Хелена Бонем-Картер.
Рис Иванс и Стивен Фрай играли брата Шерлока Холмса по имени Майкрофт: Иванс в телесериале «Элементарно», Фрай — в фильме Гая Ричи 2011 года «Шерлок Холмс: Игра теней».
Очередной проект, в котором принимают участие Саша Барон Коэн и режиссёр Джеймс Бобин. Они вместе работали над фильмом «Али Джи» и придумывали для него персонажи.
Саша Барон Коэн, который сыграл Время, и Мэтт Лукас, исполнитель ролей Труляля и Траляля, играли Тенардье в разных экранизациях «Отверженных» — Коэн в драматическом мюзикле Тома Хупера (2012), а Лукас — на концерте в 2010 году, посвящённом 25-летию выхода на экраны фильма Клода Лелуша с Жаном-Полем Бельмондо в главной роли.
Последняя роль в кино Алана Рикмана, который скончался за четыре месяца до премьеры. Рикман сыграл бабочку, которая в фильме Тима Бёртона «Алиса в Стране чудес» (2010) была ещё гусеницей.
Девятый совместный фильм Тима Бёртона и Джонни Деппа. Актёр снимался в фильмах «Эдвард Руки-ножницы» (1990), «Эд Вуд» (1994), «Сонная лощина» (1999), «Чарли и шоколадная фабрика» (2005), «Труп невесты» (2005), «Суинни Тодд, демон-парикмахер с Флит-стрит» (2007), «Алиса в Стране чудес» (2010) и «Мрачные тени» (2012).
Кинокомпания «Walt Disney Studios Motion Pictures» посвятила фильм памяти актёра Алана Рикмана.
Первое появление Саши Барона Коэна в фильмах компании «Walt Disney».
Рис Иванс, который играет отца Безумного Шляпника, на четыре года моложе Джонни Деппа, исполнившего роль его сына.
В фильме занято пять актёров, игравших в фильмах о Шерлоке Холмсе. Эндрю Скотт сыграл Джеймса Мориарти в телесериале «Шерлок», снятом для канала«BBC Wales» (2010), там же в одной из серий роль леди Смолвуд сыграла Линдси Дункан, Рис Иванс исполнил роль Майкрофта Холмса в телесериале «Элементарно» (2012), а Стивен Фрай сыграл эту роль в детективном боевике Гая Ричи «Шерлок Холмс: Игра теней» (2011), где также снялась Джеральдин Джеймс в роли миссис Хадсон.
Работа над фильмом была завершена 26 января 2015 года.
Время в исполнении Саши Барона Коэна дарит Ирацибетте в исполнении Хелены Бонэм-Картер механическое устройство, изображающее казнь через отсечение головы. Юмор ситуации можно усмотреть в том, что первой главной ролью актрисы в кинематографе была роль леди Джейн в одноимённой исторической драме Тревора Нанна (1986), где её героиню обезглавили по обвинению в государственной измене.
Музыкальное сопровождение эпизода, в котором Алиса и Безумный Шляпник пытаются вернуть Хроносферу на место, путешествуя по Океану Времени, включает в себя отрывок из главной темы сериала «Доктор Кто» (1963).
В фильме появляется Бармаглот, однако не произносит ни слова, озвучивший его в фильме Тима Бёртона «Алиса в Стране чудес» (2010) актёр Кристофер Ли скончался в возрасте 93 лет в 2015 году.</span>

<span class="post-font-serif1">Качество: HDRip / рип с BDRip 720p
Формат: MP4
Видео кодек: H.264
Аудио кодек: AAC
Видео: 960x518 AR:1.85 1740 kbps 23.976 fps
Аудио №1: [Russian] 2ch 48 kHz 128 kbps - [Dub] Профессиональный (полное дублирование) Blu-ray CEE
Аудио №2: [Ukrainian] 2ch 48 kHz 128 kbps - [Dub] Профессиональный (полное дублирование) iTunes
Аудио №3: [English] 2ch 48 kHz 128 kbps - Оригинал (Английский)</span>
avs [info]: 960x518p 1:1 @ 2997/125 fps (cfr)
x264 [info]: using SAR=1/1
x264 [info]: using cpu capabilities: MMX2 SSE2Fast SSSE3 SSE4.2 AVX FMA3 AVX2 LZCNT BMI2
x264 [info]: profile High, level 4.1

x264 [info]: frame I:2106 Avg QP:19.38 size: 76521
x264 [info]: frame P:45765 Avg QP:22.92 size: 16693
x264 [info]: frame B:114637 Avg QP:24.76 size: 4788
x264 [info]: consecutive B-frames: 5.0% 5.7% 17.1% 39.2% 19.4% 11.8% 1.3% 0.5%
x264 [info]: mb I I16..4: 3.3% 75.3% 21.3%
x264 [info]: mb P I16..4: 0.7% 7.6% 1.4% P16..4: 35.1% 36.2% 10.5% 0.0% 0.0% skip: 8.5%
x264 [info]: mb B I16..4: 0.1% 1.1% 0.2% B16..8: 35.9% 16.2% 2.3% direct: 3.3% skip:41.0% L0:39.5% L1:49.8% BI:10.7%
x264 [info]: 8x8 transform intra:78.0% inter:62.0%
x264 [info]: direct mvs spatial:92.7% temporal:7.3%
x264 [info]: coded y,uvDC,uvAC intra: 87.1% 86.6% 58.1% inter: 17.7% 17.4% 6.8%
x264 [info]: i16 v,h,dc,p: 12% 13% 4% 71%
x264 [info]: i8 v,h,dc,ddl,ddr,vr,hd,vl,hu: 10% 5% 4% 10% 16% 15% 15% 12% 13%
x264 [info]: i4 v,h,dc,ddl,ddr,vr,hd,vl,hu: 13% 6% 3% 9% 15% 15% 14% 12% 13%
x264 [info]: i8c dc,h,v,p: 37% 22% 20% 21%
x264 [info]: Weighted P-Frames: Y:9.1% UV:6.2%
x264 [info]: ref P L0: 58.6% 14.7% 13.9% 4.4% 3.3% 2.4% 2.3% 0.3% 0.0%
x264 [info]: ref B L0: 84.9% 8.3% 3.8% 1.7% 0.9% 0.4%
x264 [info]: ref B L1: 96.3% 3.7%
x264 [info]: kb/s:1739.83

encoded 162508 frames, 15.33 fps, 1739.83 kb/s
GeneralComplete name : D:\Torrents\Alice Through the Looking Glass.2016.HDRip.x264.960x.rip by Frost O.S.mp4Format : MPEG-4Format profile : Base MediaCodec ID : isom (isom/avc1/iso2)File size : 1.69 GiBDuration : 1 h 52 minOverall bit rate mode : VariableOverall bit rate : 2 140 kb/sMovie name : Alice Through the Looking Glass 2016 HDRip x264 960x rip by Frost O SGenre : Children'sContentType : Short FilmEncoded date : UTC 2016-12-17 21:33:48Tagged date : UTC 2016-12-17 21:35:41Writing application : MkvToMp4 version: 0.224 (x64)Cover : YesComment : rip by Frost O.S

VideoID : 1Format : AVCFormat/Info : Advanced Video CodecFormat profile : [email protected] settings, CABAC : YesFormat settings, ReFrames : 7 framesCodec ID : avc1Codec ID/Info : Advanced Video CodingDuration : 1 h 52 minBit rate : 1 740 kb/sMaximum bit rate : 5 082 kb/sWidth : 960 pixelsHeight : 518 pixelsDisplay aspect ratio : 1.85:1Frame rate mode : ConstantFrame rate : 23.976 (24000/1001) FPSOriginal frame rate : 23.976 (23976/1000) FPSColor space : YUVChroma subsampling : 4:2:0Bit depth : 8 bitsScan type : ProgressiveBits/(Pixel*Frame) : 0.146Stream size : 1.37 GiB (81%)Writing library : x264 core 148 r2705 3f5ed56Encoding settings : cabac=1 / ref=7 / deblock=1:-1:-1 / analyse=0x3:0x113 / me=umh / subme=11 / psy=1 / psy_rd=1.10:0.05 / mixed_ref=1 / me_range=32 / chroma_me=1 / trellis=2 / 8x8dct=1 / cqm=0 / deadzone=21,11 / fast_pskip=0 / chroma_qp_offset=-3 / threads=6 / lookahead_threads=1 / sliced_threads=0 / nr=0 / decimate=0 / interlaced=0 / bluray_compat=0 / constrained_intra=0 / bframes=7 / b_pyramid=2 / b_adapt=2 / b_bias=0 / direct=3 / weightb=1 / open_gop=0 / weightp=2 / keyint=250 / keyint_min=23 / scenecut=40 / intra_refresh=0 / rc=2pass / mbtree=0 / bitrate=1740 / ratetol=1.0 / qcomp=0.60 / qpmin=0 / qpmax=69 / qpstep=4 / cplxblur=20.0 / qblur=0.5 / ip_ratio=1.40 / pb_ratio=1.30 / aq=1:1.10Language : EnglishEncoded date : UTC 2016-12-17 21:33:48Tagged date : UTC 2016-12-17 21:34:31Color range : LimitedColor primaries : BT.709Transfer characteristics : BT.709Matrix coefficients : BT.709

Audio #1ID : 2Format : AACFormat/Info : Advanced Audio CodecFormat profile : LCCodec ID : 40Duration : 1 h 52 minBit rate mode : VariableBit rate : 128 kb/sMaximum bit rate : 135 kb/sChannel(s) : 2 channelsChannel positions : Front: L RSampling rate : 48.0 kHzFrame rate : 46.875 FPS (1024 spf)Compression mode : LossyStream size : 103 MiB (6%)Title : DUB_ Blu_ray CEE / DUB_ Blu_ray CEELanguage : RussianDefault : YesAlternate group : 1Encoded date : UTC 2016-12-17 21:34:08Tagged date : UTC 2016-12-17 21:34:31

Audio #2ID : 3Format : AACFormat/Info : Advanced Audio CodecFormat profile : LCCodec ID : 40Duration : 1 h 52 minBit rate mode : VariableBit rate : 128 kb/sMaximum bit rate : 135 kb/sChannel(s) : 2 channelsChannel positions : Front: L RSampling rate : 48.0 kHzFrame rate : 46.875 FPS (1024 spf)Compression mode : LossyStream size : 103 MiB (6%)Title : DUB_ iTunes / DUB_ iTunesLanguage : UkrainianDefault : NoAlternate group : 1Encoded date : UTC 2016-12-17 21:34:18Tagged date : UTC 2016-12-17 21:34:31

Audio #3ID : 4Format : AACFormat/Info : Advanced Audio CodecFormat profile : LCCodec ID : 40Duration : 1 h 52 minBit rate mode : VariableBit rate : 128 kb/sMaximum bit rate : 135 kb/sChannel(s) : 2 channelsChannel positions : Front: L RSampling rate : 48.0 kHzFrame rate : 46.875 FPS (1024 spf)Compression mode : LossyStream size : 103 MiB (6%)Title : [Original] / [Original]Language : EnglishDefault : NoAlternate group : 1Encoded date : UTC 2016-12-17 21:34:24Tagged date : UTC 2016-12-17 21:34:31

Text #1ID : 5Format : Timed TextMuxing mode : sbtlCodec ID : tx3gDuration : 1 h 44 minBit rate mode : VariableBit rate : 0 b/sStream size : 209 Bytes (0%)Title : Forced_ iTunes / Forced_ iTunesLanguage : RussianDefault : YesForced : NoAlternate group : 2Encoded date : UTC 2016-12-17 21:34:31Tagged date : UTC 2016-12-17 21:34:31

Text #2ID : 6Format : Timed TextMuxing mode : sbtlCodec ID : tx3gDuration : 1 h 52 minBit rate mode : VariableBit rate : 74 b/sStream size : 60.9 KiB (0%)Title : iTunes / iTunesLanguage : RussianDefault : NoForced : NoAlternate group : 2Encoded date : UTC 2016-12-17 21:34:31Tagged date : UTC 2016-12-17 21:34:31

Text #3ID : 7Format : Timed TextMuxing mode : sbtlCodec ID : tx3gDuration : 1 h 25 minBit rate mode : VariableBit rate : 0 b/sStream size : 173 Bytes (0%)Title : Forced_ iTunes / Forced_ iTunesLanguage : UkrainianDefault : NoForced : NoAlternate group : 2Encoded date : UTC 2016-12-17 21:34:31Tagged date : UTC 2016-12-17 21:34:31

Text #4ID : 8Format : Timed TextMuxing mode : sbtlCodec ID : tx3gDuration : 1 h 25 minBit rate mode : VariableBit rate : 0 b/sStream size : 45.0 Bytes (0%)Title : Forced_ iTunes / Forced_ iTunesLanguage : EnglishDefault : NoForced : NoAlternate group : 2Encoded date : UTC 2016-12-17 21:34:31Tagged date : UTC 2016-12-17 21:34:31

Text #5ID : 9Format : Timed TextMuxing mode : sbtlCodec ID : tx3gDuration : 1 h 52 minBit rate mode : VariableBit rate : 47 b/sStream size : 38.5 KiB (0%)Title : iTunes / iTunesLanguage : EnglishDefault : NoForced : NoAlternate group : 2Encoded date : UTC 2016-12-17 21:34:31Tagged date : UTC 2016-12-17 21:34:31


Трекер:  [ 18-Дек-2016 12:00 ]

  

Скачать .torrent

Размер .torrent файла 17 KB


Размер: 1.69 GB
Хэш (hash) релиза: af5c40a6ddef4226ae8f416fca34b7849a182e9b

Торренты, похожие на [VIDEO] Алиса в Зазеркалье Alice Through the Looking Glass скачать торрент

Форум Название Автор Размер S L Добавлен
Видео (Фильмы/Клипы) ·· [VIDEO] Алиса в Зазеркалье / Alice Through the Looking Glass (Джеймс Бобин / James Bobin) [2016, фэнтези, приключения, семейный, HDRip] [MP4, 480x] Dub Galfimbul 538956169514 MB 0 0 1482055546

13:05

18-Дек-16

Еще никто не оставлял запись к записи скачать торрент [VIDEO] Алиса в Зазеркалье Alice Through the Looking Glass . Будь первым!

!Обратная связь