Fate/Zero | Running Man Episode 106 | Anders Holm

Скачать через торрент [VIDEO] Алиса в Зазеркалье Alice Through the Looking Glass бесплатно русская версия torrent активатор

Статистика раздачи
Размер:  514 MB   |    Зарегистрирован:  1 год 7 месяцев   |    .torrent скачан:  14 раз   |   
Раздают:  1  
   
загрузка...
 
Автор Сообщение

Galfimbul

avatar Galfimbul


<span class="post-font-serif1">Алиса в Зазеркалье / Alice Through the Looking Glass</span>

<span class="post-font-serif1">Год выпуска: 2016
Страна: США, Великобритания
Жанр: фэнтези, приключения, семейный
Продолжительность: 01:52:57
Перевод: русский Профессиональный (полное дублирование) Blu-ray CEE
Cубтитры: нет</span>
<span class="post-font-serif1">Режиссер: Джеймс Бобин / James Bobin</span>
<span class="post-font-serif1">В ролях: Миа Васиковска (Alice Kingsleigh), Джонни Депп (Hatter Tarrant Hightopp), Хелена Бонем Картер (Iracebeth), Энн Хэтэуэй (Mirana), Саша Барон Коэн (Time), Рис Иванс (Zanik Hightopp), Мэтт Лукас (Tweedledee / Tweedledum), Линдси Дункан (Helen Kingsleigh), Лео Билл (Hamish), Джеральдин Джеймс (Lady Ascot), Эндрю Скотт (Dr. Addison Bennett), Ричард Армитедж (King Oleron) и другие .</span>
<span class="post-font-serif1">Описание: На этот раз главной героине предстоит отправиться в путешествие во времени, полное неожиданностей и ярких открытий, чтобы спасти своего друга, Безумного Шляпника..</span>
<span class="post-font-serif1">Релиз группы </span>
<span class="post-font-serif1">Джонни Депп, Хелена Бонем-Картер, Алан Рикман, Саша Барон Коэн и Тимоти Сполл играли в фильме Тима Бёртона «Суинни Тодд, демон-парикмахер с Флит-стрит» (2007).
Седьмой и последний фильм, в котором вместе снялись Алан Рикман и Хелена Бонем-Картер.
Рис Иванс и Стивен Фрай играли брата Шерлока Холмса по имени Майкрофт: Иванс в телесериале «Элементарно», Фрай — в фильме Гая Ричи 2011 года «Шерлок Холмс: Игра теней».
Очередной проект, в котором принимают участие Саша Барон Коэн и режиссёр Джеймс Бобин. Они вместе работали над фильмом «Али Джи» и придумывали для него персонажи.
Саша Барон Коэн, который сыграл Время, и Мэтт Лукас, исполнитель ролей Труляля и Траляля, играли Тенардье в разных экранизациях «Отверженных» — Коэн в драматическом мюзикле Тома Хупера (2012), а Лукас — на концерте в 2010 году, посвящённом 25-летию выхода на экраны фильма Клода Лелуша с Жаном-Полем Бельмондо в главной роли.
Последняя роль в кино Алана Рикмана, который скончался за четыре месяца до премьеры. Рикман сыграл бабочку, которая в фильме Тима Бёртона «Алиса в Стране чудес» (2010) была ещё гусеницей.
Девятый совместный фильм Тима Бёртона и Джонни Деппа. Актёр снимался в фильмах «Эдвард Руки-ножницы» (1990), «Эд Вуд» (1994), «Сонная лощина» (1999), «Чарли и шоколадная фабрика» (2005), «Труп невесты» (2005), «Суинни Тодд, демон-парикмахер с Флит-стрит» (2007), «Алиса в Стране чудес» (2010) и «Мрачные тени» (2012).
Кинокомпания «Walt Disney Studios Motion Pictures» посвятила фильм памяти актёра Алана Рикмана.
Первое появление Саши Барона Коэна в фильмах компании «Walt Disney».
Рис Иванс, который играет отца Безумного Шляпника, на четыре года моложе Джонни Деппа, исполнившего роль его сына.
В фильме занято пять актёров, игравших в фильмах о Шерлоке Холмсе. Эндрю Скотт сыграл Джеймса Мориарти в телесериале «Шерлок», снятом для канала«BBC Wales» (2010), там же в одной из серий роль леди Смолвуд сыграла Линдси Дункан, Рис Иванс исполнил роль Майкрофта Холмса в телесериале «Элементарно» (2012), а Стивен Фрай сыграл эту роль в детективном боевике Гая Ричи «Шерлок Холмс: Игра теней» (2011), где также снялась Джеральдин Джеймс в роли миссис Хадсон.
Работа над фильмом была завершена 26 января 2015 года.
Время в исполнении Саши Барона Коэна дарит Ирацибетте в исполнении Хелены Бонэм-Картер механическое устройство, изображающее казнь через отсечение головы. Юмор ситуации можно усмотреть в том, что первой главной ролью актрисы в кинематографе была роль леди Джейн в одноимённой исторической драме Тревора Нанна (1986), где её героиню обезглавили по обвинению в государственной измене.
Музыкальное сопровождение эпизода, в котором Алиса и Безумный Шляпник пытаются вернуть Хроносферу на место, путешествуя по Океану Времени, включает в себя отрывок из главной темы сериала «Доктор Кто» (1963).
В фильме появляется Бармаглот, однако не произносит ни слова, озвучивший его в фильме Тима Бёртона «Алиса в Стране чудес» (2010) актёр Кристофер Ли скончался в возрасте 93 лет в 2015 году.</span>

<span class="post-font-serif1">Качество: HDRip / рип с BDRip 720p
Формат: MP4
Видео кодек: XviD
Аудио кодек: AAC
Видео: 480x256 AR:1.85 500 kbps 23.976 fps
Аудио: [Russian] 2ch 48 kHz 128 kbps - [Dub] Профессиональный (полное дублирование) Blu-ray CEE</span>
GeneralComplete name : D:\Torrents\Alice Through the Looking Glass.2016.HDRip.XviD.480x.rip by Frost O.S.mp4Format : MPEG-4Format profile : Base MediaCodec ID : isom (isom/iso2)File size : 514 MiBDuration : 1 h 52 minOverall bit rate mode : VariableOverall bit rate : 636 kb/sMovie name : Alice Through the Looking Glass 2016 HDRip XviD 480x rip by Frost O SGenre : Children'sContentType : Short FilmEncoded date : UTC 2016-12-17 21:38:36Tagged date : UTC 2016-12-17 21:39:00Writing application : MkvToMp4 version: 0.224 (x64)Cover : YesComment : rip by Frost O.S

VideoID : 1Format : MPEG-4 VisualFormat profile : Advanced [email protected] settings, BVOP : YesFormat settings, QPel : NoFormat settings, GMC : No warppointsFormat settings, Matrix : CustomCodec ID : 20Duration : 1 h 52 minBit rate mode : VariableBit rate : 500 kb/sMaximum bit rate : 2 476 kb/sWidth : 480 pixelsHeight : 256 pixelsDisplay aspect ratio : 1.85:1Frame rate mode : ConstantFrame rate : 23.976 (24000/1001) FPSOriginal frame rate : 23.976 (23976/1000) FPSColor space : YUVChroma subsampling : 4:2:0Bit depth : 8 bitsScan type : ProgressiveCompression mode : LossyBits/(Pixel*Frame) : 0.170Stream size : 404 MiB (79%)Title : avi_GPAC0.5.2_DEV_rev248_g39d5978_masterWriting library : XviD 1.2.1 (UTC 2008-12-04)Language : EnglishTagged date : UTC 2016-12-17 21:38:44

AudioID : 2Format : AACFormat/Info : Advanced Audio CodecFormat profile : LCCodec ID : 40Duration : 1 h 52 minBit rate mode : VariableBit rate : 128 kb/sMaximum bit rate : 135 kb/sChannel(s) : 2 channelsChannel positions : Front: L RSampling rate : 48.0 kHzFrame rate : 46.875 FPS (1024 spf)Compression mode : LossyStream size : 103 MiB (20%)Title : DUB_ Blu_ray CEE / DUB_ Blu_ray CEELanguage : RussianDefault : YesAlternate group : 1Encoded date : UTC 2016-12-17 21:38:43Tagged date : UTC 2016-12-17 21:38:44


Трекер:  [ 18-Дек-2016 12:00 ]

  

Скачать .torrent

Размер .torrent файла 10 KB


Размер: 514 MB
Хэш (hash) релиза: 42db0b0734b9945eed02209fb0f46fd857954bfc

Торренты, похожие на [VIDEO] Алиса в Зазеркалье Alice Through the Looking Glass скачать торрент

Форум Название Автор Размер S L Добавлен
Видео (Фильмы/Клипы) ·· [VIDEO] Алиса в Зазеркалье / Alice Through the Looking Glass (Джеймс Бобин / James Bobin) [2016, фэнтези, приключения, семейный, HDRip] [MP4, 960x] Dub (Rus, Ukr), Original, Sub (rus, ukr, eng) Galfimbul 18126882231.69 GB 0 0 1482055551

13:05

18-Дек-16

Еще никто не оставлял запись к записи скачать торрент [VIDEO] Алиса в Зазеркалье Alice Through the Looking Glass . Будь первым!

!Обратная связь