Sega (2011) Telugu 720p WEBHD x264 AAC R... | Adventure | IMDb: 6.0 HD Blackmark

Скачать через торрент [VIDEO] Kingsman: Секретная служба Kingsman: The Secret Service бесплатно русская версия torrent активатор

Статистика раздачи
Размер:  1.38 GB   |    Зарегистрирован:  1 год 8 месяцев   |    .torrent скачан:  50 раз   |   
Раздают:  1  
   
загрузка...
 
Автор Сообщение

Galfimbul

avatar Galfimbul


<span class="post-font-serif1">Kingsman: Секретная служба / Kingsman: The Secret Service</span>

<span class="post-font-serif1">Год выпуска: 2014
Страна: Великобритания, США
Жанр: боевик, комедия, криминал, приключения
Продолжительность: 02:08:44
Перевод №1: русский Профессиональный (полное дублирование) Blu-ray EUR
Перевод №2: украинский Профессиональный (полное дублирование) Blu-ray EUR
Перевод №3: русский Авторский (одноголосый, закадровый) Матвеев
Оригинальная дорожка: Есть
Cубтитры: русские (Forced, Full), украинские (Forced, Full), английские (Forced, Full, SDH, SDH Colored)</span>
<span class="post-font-serif1">Режиссер: Мэттью Вон / Matthew Vaughn</span>
<span class="post-font-serif1">В ролях: Тэрон Эджертон, Колин Фёрт, Сэмюэл Л. Джексон, Марк Стронг, Софи Куксон, Майкл Кейн, София Бутелла, Саманта Янус, Джофф Белл, Марк Хэмилл и другие .</span>
<span class="post-font-serif1">Описание: Эггси — молодой парень, который прошел службу в морской пехоте и имеет очень высокий уровень интеллекта. Он мог бы добиться многого, но выбрал другой путь и стал мелким преступником. Однажды он знакомится с Гарри Хартом, которому его отец когда-то спас жизнь. Этот человек решил сделать все возможное, чтобы сделать жизнь Эггси лучше и открыть для него новые возможности.

Гарри рассказал ему, что является агентом секретной независимой организации, которая стоит на защите всего мира. Он предложил парню пройти обучение и стать новым членом их команды. Эггси принял предложение Харта, но сможет ли он справиться со всеми испытаниями и оправдать его надежды?..</span>
<span class="post-font-serif1">Релиз группы </span>
<span class="post-font-serif1">Фильм был снят по мотивам комикса «The Secret Service» (Секретная служба) авторов Марка Миллара и Дэйва Гиббонса.
По сюжету оригинального комикса похищенным является не персонаж профессор Арнольд, а актер Марк Хэммил, сыгравший в фильме роль профессора Арнольда.
Режиссер Мэттью Вон отказался заниматься режиссурой фильма «Люди Икс: Дни минувшего будущего» (2014), чтобы возглавить этот проект.
Эмма Уотсон и Белла Хиткот рассматривались на главную женскую роль.
По сценарию персонаж Сэмюэла Л. Джексона не шепелявил, однако во время первого дубля режиссер Мэттью Вон услышал, как он все же шепелявил. Поговорив с актером, Вон узнал, что до его актерской карьеры Джексон на самом деле шепелявил, но в итоге сумел избавиться от этого расстройства речи.
В комиксе «Secret Service» (Секретная служба) персонаж Газель был мужчиной, а не женщиной, как это показано в фильме.
Актер Колин Фёрт выполнил 80% своих трюков самостоятельно.
Колин Фёрт тренировался в течение шести месяцев, чтобы набрать необходимую физическую форму для своей роли.
Режиссер Мэттью Вон хотел, чтобы у Мерлина (Марк Стронг) был валлийский акцент, но это оказалось слишком сложной задачей для него, и в итоге Стронг убедил режиссера позволить ему вместо этого использовать шотландский акцент.
Леонардо ДиКаприо, Том Круз и Идрис Эльба рассматривались на роль Ричмонда, но в итоге роль досталась Сэмюэлю Л. Джексону.
На роль Эггси пробовались более шестидесяти актеров. Главными кандидатурами были Джек О`Коннелл, Джон Бойега и Тэрон Эджертон. Также роль Эггси предлагали Аарону Тейлору-Джонсону, но он отказался. В итоге Мэттью Вон отдал предпочтение Эджертону.
Был момент, когда Оскар Писториус (Oscar Pistorius), бегун на короткие дистанции из ЮАР с ампутированными конечностями обеих ног ниже колен, предлагал свою кандидатуру на роль персонажа по имени Газель. При этом представителей Писториуса спрашивали, сможет ли он убедительно исполнить роль убийцы. Однако в итоге он отказался от роли, решив сосредоточиться на подготовке к грядущим спортивным событиям, а некоторое время спустя, в феврале 2013 года, Писториус застрелил свою девушку — Реву Стенкамп (Reeva Steenkamp).
Мэттью Вон советовал Колину Фёрту для создания образа Гарри Харта ориентироваться больше на Дэвида Нивена, нежели на Роджера Мура.
Магазин Kingsman, который можно увидеть в фильме, был создан по образу всемирно известного швейного магазина Huntsman. Художник-постановщик Пол Кирби и его команда построили магазин Kingsman в павильоне студии в Ливесдене (Хартфордшир, Великобритания), а портные из Huntsman одолжили им некоторые предметы реквизита, чтобы магазин выглядел более правдоподобно.
Софии Бутелле пришлось пройти курс интенсивных тренировок для подготовки к ее роли. Среди них были тренировки по тайскому боксу и тхэквондо.
Во время финальных титров фильма звучит песня «Get Ready For It» группы Take That.
Для создания костюмов сотрудников секретной службы художник Арианна Филлипс объединилась с интернет магазином одежды Mrporter.com.
Съемки в штаб-квартире секретной службы Kingsman проходили в доме моды Savile Row.
В трейлере фильма звучит песня Дэвида Боуи — «Suffragette City».
В одной из первых сцен фильма в идущем фоном выпуске новостей можно услышать, как ведущая рассказывает об исчезновении певицы Игги Азалия, местонахождение которой до сих пор не известно. Игги Азалия является исполнительницей песни Heavy Crown, звучащей в одном из трейлеров фильма и в финальных титрах.
В одной из сцен с обложками газеты «The Sun» есть обложка с текстом «Брэд Питт съел мой сэндвич».
В фильме довольно часто мелькают кроссовки от Adidas (их носят протагонист и антагонист). Главный герой, по сюжету, из небогатой семьи и не может позволить себе дорогие вещи. Однако в некоторых моментах можно заметить на его ногах Adidas Wings by Jeremy Scott, цена которых составляет $200.
Когда Галахад рассказывает Эггси о Kingsman, он говорит, что «Kingsman одевает самых влиятельных людей мира с 1849 года». Именно в этом году был создан швейный магазин Huntsman, по образу которого и сделан Kingsman.</span>

<span class="post-font-serif1">На 61-й минуте когда действие фильма происходит в клубе, у главного героя несколько раз то появляется, то исчезает золотая цепочка на шее.
В сцене, где Артур с Эггси пьют коньяк, бокал Артура то пустеет, то наполняется.
Когда герой Сэмюэля Л. Джексона разговаривает с принцессой через отверстие в двери ее клетки, можно заметить, что его расположение меняется при смене кадра.
Когда Эггси находится в полицейском участке, он говорит, что хочет воспользоваться своим правом на телефонный звонок. На общем плане на столе никакого телефона нет, но после смены кадра Эггси снимает трубку с телефона, который там неожиданно появился.</span>

<span class="post-font-serif1">Качество: HDRip / рип с BDRip 720p
Формат: MP4
Видео кодек: H.264
Аудио кодек: AAC
Видео: 960x402 AR:2.40 1000 kbps 23.976 fps
Аудио №1: [Russian] 2ch 48 kHz 128 kbps - [Dub] Профессиональный (полное дублирование) Blu-ray EUR
Аудио №2: [Ukrainian] 2ch 48 kHz 128 kbps - [Dub] Профессиональный (полное дублирование) Blu-ray EUR
Аудио №3: [Russian] 2ch 48 kHz 128 kbps - [VO] Авторский (одноголосый, закадровый) Матвеев
Аудио №4: [English] 2ch 48 kHz 128 kbps - Оригинал (Английский)</span>
avs [info]: 960x402p 1:1 @ 2997/125 fps (cfr)
x264 [info]: using SAR=1/1
x264 [info]: using cpu capabilities: MMX2 SSE2Fast SSSE3 SSE4.2 AVX FMA3 AVX2 LZCNT BMI2
x264 [info]: profile High, level 4.1

x264 [info]: frame I:2042 Avg QP:17.64 size: 46001
x264 [info]: frame P:46065 Avg QP:22.32 size: 10481
x264 [info]: frame B:137088 Avg QP:23.75 size: 2832
x264 [info]: consecutive B-frames: 4.9% 4.8% 10.6% 20.6% 16.1% 32.8% 4.6% 3.4% 2.2%
x264 [info]: mb I I16..4: 7.1% 67.7% 25.2%
x264 [info]: mb P I16..4: 1.5% 8.0% 1.8% P16..4: 35.3% 35.2% 8.6% 0.0% 0.0% skip: 9.7%
x264 [info]: mb B I16..4: 0.2% 0.8% 0.2% B16..8: 33.9% 13.6% 1.6% direct: 2.3% skip:47.5% L0:42.1% L1:48.7% BI: 9.2%
x264 [info]: 8x8 transform intra:69.4% inter:62.7%
x264 [info]: direct mvs spatial:94.7% temporal:5.3%
x264 [info]: coded y,uvDC,uvAC intra: 75.9% 72.9% 40.1% inter: 11.4% 10.5% 4.0%
x264 [info]: i16 v,h,dc,p: 22% 17% 3% 59%
x264 [info]: i8 v,h,dc,ddl,ddr,vr,hd,vl,hu: 13% 7% 4% 10% 14% 13% 15% 12% 13%
x264 [info]: i4 v,h,dc,ddl,ddr,vr,hd,vl,hu: 24% 8% 4% 8% 12% 11% 12% 9% 11%
x264 [info]: i8c dc,h,v,p: 27% 31% 23% 18%
x264 [info]: Weighted P-Frames: Y:10.4% UV:6.6%
x264 [info]: ref P L0: 56.0% 11.6% 14.8% 5.8% 3.9% 3.2% 2.6% 1.7% 0.3% 0.0%
x264 [info]: ref B L0: 78.2% 10.3% 5.2% 2.8% 1.8% 1.2% 0.4%
x264 [info]: ref B L1: 94.3% 5.7%
x264 [info]: kb/s:999.40

encoded 185195 frames, 20.62 fps, 999.40 kb/s
GeneralComplete name : D:\Torrents\Kingsman The Secret Service.2014.HDRip.x264.960x.rip by Frost O.S.mp4Format : MPEG-4Format profile : Base MediaCodec ID : isom (isom/avc1/iso2)File size : 1.38 GiBDuration : 2 h 8 minOverall bit rate mode : VariableOverall bit rate : 1 531 kb/sMovie name : Kingsman The Secret Service 2014 HDRip x264 960x rip by Frost O SGenre : ActionContentType : Short FilmEncoded date : UTC 2016-12-18 05:48:10Tagged date : UTC 2016-12-18 05:50:01Writing application : MkvToMp4 version: 0.224 (x64)Cover : YesComment : rip by Frost O.S

VideoID : 1Format : AVCFormat/Info : Advanced Video CodecFormat profile : [email protected] settings, CABAC : YesFormat settings, ReFrames : 8 framesCodec ID : avc1Codec ID/Info : Advanced Video CodingDuration : 2 h 8 minBit rate : 1 000 kb/sMaximum bit rate : 5 050 kb/sWidth : 960 pixelsHeight : 402 pixelsDisplay aspect ratio : 2.40:1Frame rate mode : ConstantFrame rate : 23.976 (24000/1001) FPSOriginal frame rate : 23.976 (23976/1000) FPSColor space : YUVChroma subsampling : 4:2:0Bit depth : 8 bitsScan type : ProgressiveBits/(Pixel*Frame) : 0.108Stream size : 920 MiB (65%)Writing library : x264 core 148 r2705 3f5ed56Encoding settings : cabac=1 / ref=8 / deblock=1:-1:-1 / analyse=0x3:0x113 / me=umh / subme=11 / psy=1 / psy_rd=1.00:0.00 / mixed_ref=1 / me_range=32 / chroma_me=1 / trellis=2 / 8x8dct=1 / cqm=0 / deadzone=21,11 / fast_pskip=0 / chroma_qp_offset=-2 / threads=6 / lookahead_threads=1 / sliced_threads=0 / nr=0 / decimate=0 / interlaced=0 / bluray_compat=0 / constrained_intra=0 / bframes=8 / b_pyramid=2 / b_adapt=2 / b_bias=0 / direct=3 / weightb=1 / open_gop=0 / weightp=2 / keyint=250 / keyint_min=23 / scenecut=40 / intra_refresh=0 / rc=2pass / mbtree=0 / bitrate=1000 / ratetol=1.0 / qcomp=0.60 / qpmin=0 / qpmax=69 / qpstep=4 / cplxblur=20.0 / qblur=0.5 / ip_ratio=1.40 / pb_ratio=1.30 / aq=1:0.90Language : EnglishEncoded date : UTC 2016-12-18 05:48:10Tagged date : UTC 2016-12-18 05:48:32Color range : LimitedColor primaries : BT.709Transfer characteristics : BT.709Matrix coefficients : BT.709

Audio #1ID : 2Format : AACFormat/Info : Advanced Audio CodecFormat profile : LCCodec ID : 40Duration : 2 h 8 minBit rate mode : VariableBit rate : 128 kb/sMaximum bit rate : 135 kb/sChannel(s) : 2 channelsChannel positions : Front: L RSampling rate : 48.0 kHzFrame rate : 46.875 FPS (1024 spf)Compression mode : LossyStream size : 118 MiB (8%)Title : DUB_ Blu_ray EUR / DUB_ Blu_ray EURLanguage : RussianDefault : YesAlternate group : 1Encoded date : UTC 2016-12-18 05:48:21Tagged date : UTC 2016-12-18 05:48:32

Audio #2ID : 3Format : AACFormat/Info : Advanced Audio CodecFormat profile : LCCodec ID : 40Duration : 2 h 8 minBit rate mode : VariableBit rate : 128 kb/sMaximum bit rate : 135 kb/sChannel(s) : 2 channelsChannel positions : Front: L RSampling rate : 48.0 kHzFrame rate : 46.875 FPS (1024 spf)Compression mode : LossyStream size : 118 MiB (8%)Title : DUB_ Blu_ray EUR / DUB_ Blu_ray EURLanguage : UkrainianDefault : NoAlternate group : 1Encoded date : UTC 2016-12-18 05:48:24Tagged date : UTC 2016-12-18 05:48:32

Audio #3ID : 4Format : AACFormat/Info : Advanced Audio CodecFormat profile : LCCodec ID : 40Duration : 2 h 8 minBit rate mode : VariableBit rate : 128 kb/sMaximum bit rate : 135 kb/sChannel(s) : 2 channelsChannel positions : Front: L RSampling rate : 48.0 kHzFrame rate : 46.875 FPS (1024 spf)Compression mode : LossyStream size : 118 MiB (8%)Title : VO_ Matveev / VO_ MatveevLanguage : RussianDefault : NoAlternate group : 1Encoded date : UTC 2016-12-18 05:48:26Tagged date : UTC 2016-12-18 05:48:32

Audio #4ID : 5Format : AACFormat/Info : Advanced Audio CodecFormat profile : LCCodec ID : 40Duration : 2 h 8 minBit rate mode : VariableBit rate : 128 kb/sMaximum bit rate : 135 kb/sChannel(s) : 2 channelsChannel positions : Front: L RSampling rate : 48.0 kHzFrame rate : 46.875 FPS (1024 spf)Compression mode : LossyStream size : 118 MiB (8%)Title : Original / OriginalLanguage : EnglishDefault : NoAlternate group : 1Encoded date : UTC 2016-12-18 05:48:29Tagged date : UTC 2016-12-18 05:48:32

Text #1ID : 6Format : Timed TextMuxing mode : sbtlCodec ID : tx3gDuration : 2 h 2 minBit rate mode : VariableBit rate : 2 b/sStream size : 2.10 KiB (0%)Title : forced / forcedLanguage : RussianDefault : YesForced : NoAlternate group : 2Encoded date : UTC 2016-12-18 05:48:31Tagged date : UTC 2016-12-18 05:48:32

Text #2ID : 7Format : Timed TextMuxing mode : sbtlCodec ID : tx3gDuration : 2 h 8 minBit rate mode : VariableBit rate : 100 b/sStream size : 94.2 KiB (0%)Title : Full / FullLanguage : RussianDefault : NoForced : NoAlternate group : 2Encoded date : UTC 2016-12-18 05:48:31Tagged date : UTC 2016-12-18 05:48:32

Text #3ID : 8Format : Timed TextMuxing mode : sbtlCodec ID : tx3gDuration : 2 h 2 minBit rate mode : VariableBit rate : 3 b/sStream size : 2.25 KiB (0%)Title : forced / forcedLanguage : UkrainianDefault : NoForced : NoAlternate group : 2Encoded date : UTC 2016-12-18 05:48:31Tagged date : UTC 2016-12-18 05:48:32

Text #4ID : 9Format : Timed TextMuxing mode : sbtlCodec ID : tx3gDuration : 2 h 2 minBit rate mode : VariableBit rate : 113 b/sStream size : 101 KiB (0%)Title : Full / FullLanguage : UkrainianDefault : NoForced : NoAlternate group : 2Encoded date : UTC 2016-12-18 05:48:31Tagged date : UTC 2016-12-18 05:48:32

Text #5ID : 10Format : Timed TextMuxing mode : sbtlCodec ID : tx3gDuration : 44 min 10 sBit rate mode : VariableBit rate : 1 b/sStream size : 326 Bytes (0%)Title : forced / forcedLanguage : EnglishDefault : NoForced : NoAlternate group : 2Encoded date : UTC 2016-12-18 05:48:31Tagged date : UTC 2016-12-18 05:48:32

Text #6ID : 11Format : Timed TextMuxing mode : sbtlCodec ID : tx3gDuration : 2 h 8 minBit rate mode : VariableBit rate : 76 b/sStream size : 71.7 KiB (0%)Title : Full / FullLanguage : EnglishDefault : NoForced : NoAlternate group : 2Encoded date : UTC 2016-12-18 05:48:31Tagged date : UTC 2016-12-18 05:48:32

Text #7ID : 12Format : Timed TextMuxing mode : sbtlCodec ID : tx3gDuration : 2 h 8 minBit rate mode : VariableBit rate : 83 b/sStream size : 78.0 KiB (0%)Title : SDH / SDHLanguage : EnglishDefault : NoForced : NoAlternate group : 2Encoded date : UTC 2016-12-18 05:48:31Tagged date : UTC 2016-12-18 05:48:32

Text #8ID : 13Format : Timed TextMuxing mode : sbtlCodec ID : tx3gDuration : 2 h 8 minBit rate mode : VariableBit rate : 97 b/sStream size : 91.0 KiB (0%)Title : SDH Colored / SDH ColoredLanguage : EnglishDefault : NoForced : NoAlternate group : 2Encoded date : UTC 2016-12-18 05:48:31Tagged date : UTC 2016-12-18 05:48:32


Трекер:  [ 18-Дек-2016 12:00 ]

  

Скачать .torrent

Размер .torrent файла 14 KB


Размер: 1.38 GB
Хэш (hash) релиза: 1d6a3458977c7e88fe0be25d10d6110294d65b7b

Еще никто не оставлял запись к записи скачать торрент [VIDEO] Kingsman: Секретная служба Kingsman: The Secret Service . Будь первым!

!Обратная связь