In the End | Akuma no Riddle | World Truck Driving Simulator APK

Скачать через торрент [VIDEO] Книга джунглей The Jungle Book бесплатно русская версия torrent активатор

Статистика раздачи
Размер:  1.58 GB   |    Зарегистрирован:  1 год 6 месяцев   |    .torrent скачан:  37 раз   |   
Раздают:  1  
   
загрузка...
 
Автор Сообщение

Galfimbul

avatar Galfimbul


<span class="post-font-serif1">Книга джунглей / The Jungle Book</span>

<span class="post-font-serif1">Год выпуска: 2016
Страна: Великобритания, США
Жанр: фэнтези, драма, приключения, семейный
Продолжительность: 01:45:54
Перевод №1: русский Профессиональный (полное дублирование) Blu-ray CEE
Перевод №2: украинский Профессиональный (полное дублирование) Disney Buena Vista
Оригинальная дорожка: Есть
Cубтитры: русские (Forced iTunes, iTunes ), английские (Full, SDH)</span>
<span class="post-font-serif1">Режиссер: Джон Фавро / Jon Favreau</span>
<span class="post-font-serif1">В ролях: Нил Сетхи, Билл Мюррей, Бен Кингсли, Идрис Эльба, Лупита Нионго, Скарлетт Йоханссон, Джанкарло Эспозито, Кристофер Уокен, Гарри Шендлинг, Брайтон Роуз и другие .</span>
<span class="post-font-serif1">Описание: Непримиримая борьба с опасным и страшным тигром Шерханом вынуждает Маугли покинуть волчью стаю и отправиться в деревню к людям. На пути мальчика ждут удивительные открытия и захватывающие приключения с пантерой Багирой, медведем Балу, питоном Каа и другими обитателями дремучих джунглей.</span>
<span class="post-font-serif1">Релиз группы </span>
<span class="post-font-serif1">Это первое участие Кристофера Уокена в проектах студии «Walt Disney Pictures» после фильма «Деревенские медведи» (2002).
В мультфильме «Книга джунглей» (1967) король Луи изображён орангутангом. В фильме он будет гигантопитеком. Считается, что эти предки орангутанов обитали в некоторых частях Индии. Авторы фильма предпочли гигантопитека, чтобы сделать фильм более фантастическим и потому, что орангутанги в Индии не водятся.
Это будет ремейк мультфильма 1967 года в виде художественного фильма с элементами компьютерной анимации. Авторы внесли в него некоторые изменения, включив в сюжет эпизоды из книги Редьярда Киплинга, чтобы сделать повествование более увлекательным.
Персонаж Балу озвучивает Билл Мюррей. В фильме «Книга джунглей: История Маугли» (1998) этот же персонаж озвучил его старший брат Брайан Дойл-Мюррей.
К мультфильму 1967 года «Книга джунглей» тексты песен написал Ричард М. Шерман. Он же напишет тексты песен для нового фильма.
Впервые в истории Каа станет персонажем женского пола.
При создании образов говорящих животных были использованы повадки настоящих зверей, которые актёрам пришлось копировать с помощью т. н. технологии захвата движения.
Это уже четвёртый совместный проект режиссёра Джона Фавро и композитора Джона Дебни. Они вместе работали над фильмами «Эльф» (2003), «Затура: Космическое приключение» (2005) и «Железный человек 2» (2010).
Волчата в фильме носят имена актёров и других членов съёмочной группы.
Балу насвистывает песенку «The Bare Necessities» из диснеевского мультфильма 1967 года.
Вначале премьера была назначена на октябрь 2015, но затем перенесена на 2016 год.
Все места, где происходит действие фильма, являются продуктом компьютерных технологий.
Первая совместная работа Скарлетт Йоханссон и Билла Мюррея после фильма «Трудности перевода» (2003).
Бен Кингсли, Скарлетт Йоханссон и Идрис Эльба снимались в фильмах по комиксам студии «Marvel»; Кристофер Уокен сыграл в фильме «Бэтмен возвращается» (1992) по комиксам «DC»; Билл Мюррей принял участие в съёмках «Гарфилда» (2004) по мотивам газетных комиксов.
Джанкарло Эспозито, чьим голосом говорит Акела, снимался в рекламе компьютерной игры «Destiny» (2014), где он прочёл отрывок из стихотворения «Закон джунглей» из «Второй книги джунглей» Редьярда Киплинга.
Это тринадцатый фильм студии «Walt Disney Pictures», музыку к которому написал Джон Дебни.
Первый фильм студии «Walt Disney Pictures», в котором сыграл Билл Мюррей. Прежде он снимался только в фильмах, выходивших под лейблом «Touchstone Pictures» (кинематографическое подразделение компании Диснея): «А как же Боб?» (1991), «Эд Вуд» (1994), «Академия Рашмор» (1998), «Колыбель будет качаться» (1999), «Семейка Тененбаум» (2001) и «Водная жизнь» (2004). Кроме того, Мюррей стал вторым актёром из фильма «Охотники за привидениями» (1984), сыгравшим медведя. До него это сделал Дэн Эйкройд в 2010 году, когда снялся в главной роли в фильме «Медведь Йоги».</span>

<span class="post-font-serif1">Качество: HDRip / рип с BDRip 1080p
Формат: MP4
Видео кодек: H.264
Аудио кодек: AAC
Видео: 960x518 AR:1.85 1740 kbps 23.976 fps
Аудио №1: [Russian] 2ch 48 kHz 128 kbps - [Dub] Профессиональный (полное дублирование) Blu-ray CEE
Аудио №2: [Ukrainian] 2ch 48 kHz 128 kbps - [Dub] Профессиональный (полное дублирование) Disney Buena Vista
Аудио №3: [English] 2ch 48 kHz 128 kbps - Оригинал (Английский)</span>
avs [info]: 960x518p 1:1 @ 2997/125 fps (cfr)
x264 [info]: using SAR=1/1
x264 [info]: using cpu capabilities: MMX2 SSE2Fast SSSE3 SSE4.2 AVX FMA3 AVX2 LZCNT BMI2
x264 [info]: profile High, level 4.1

x264 [info]: frame I:1157 Avg QP:19.61 size: 71594
x264 [info]: frame P:39802 Avg QP:24.09 size: 17642
x264 [info]: frame B:111400 Avg QP:25.37 size: 5360
x264 [info]: consecutive B-frames: 4.2% 6.6% 11.3% 28.7% 14.6% 28.3% 3.3% 1.0% 1.2% 0.3% 0.5%
x264 [info]: mb I I16..4: 6.5% 72.0% 21.5%
x264 [info]: mb P I16..4: 0.7% 8.1% 1.4% P16..4: 34.6% 34.4% 11.0% 0.0% 0.0% skip: 9.9%
x264 [info]: mb B I16..4: 0.1% 1.2% 0.2% B16..8: 34.2% 14.8% 2.4% direct: 3.9% skip:43.2% L0:41.3% L1:47.4% BI:11.3%
x264 [info]: 8x8 transform intra:79.0% inter:59.1%
x264 [info]: direct mvs spatial:93.0% temporal:7.0%
x264 [info]: coded y,uvDC,uvAC intra: 84.2% 68.5% 36.2% inter: 17.7% 11.5% 4.8%
x264 [info]: i16 v,h,dc,p: 15% 21% 6% 58%
x264 [info]: i8 v,h,dc,ddl,ddr,vr,hd,vl,hu: 10% 6% 5% 10% 15% 13% 15% 12% 14%
x264 [info]: i4 v,h,dc,ddl,ddr,vr,hd,vl,hu: 12% 7% 5% 9% 14% 13% 14% 11% 15%
x264 [info]: i8c dc,h,v,p: 36% 29% 18% 17%
x264 [info]: Weighted P-Frames: Y:8.3% UV:5.2%
x264 [info]: ref P L0: 56.7% 12.5% 13.7% 5.2% 3.9% 3.3% 2.6% 1.9% 0.3% 0.0%
x264 [info]: ref B L0: 81.5% 7.8% 4.6% 2.3% 2.3% 1.1% 0.4%
x264 [info]: ref B L1: 95.8% 4.2%
x264 [info]: kb/s:1739.94

encoded 152359 frames, 13.12 fps, 1739.94 kb/s
GeneralComplete name : D:\Torrents\The Jungle Book.2016.HDRip.x264.960x.rip by Frost O.S.mp4Format : MPEG-4Format profile : Base MediaCodec ID : isom (isom/avc1/iso2)File size : 1.58 GiBDuration : 1 h 45 minOverall bit rate mode : VariableOverall bit rate : 2 139 kb/sMovie name : The Jungle Book 2016 HDRip x264 960x rip by Frost O SGenre : ActionContentType : Short FilmEncoded date : UTC 2016-12-17 21:07:15Tagged date : UTC 2016-12-17 21:09:12Writing application : MkvToMp4 version: 0.224 (x64)Cover : YesComment : rip by Frost O.S

VideoID : 1Format : AVCFormat/Info : Advanced Video CodecFormat profile : [email protected] settings, CABAC : YesFormat settings, ReFrames : 8 framesCodec ID : avc1Codec ID/Info : Advanced Video CodingDuration : 1 h 45 minBit rate : 1 740 kb/sMaximum bit rate : 7 002 kb/sWidth : 960 pixelsHeight : 518 pixelsDisplay aspect ratio : 1.85:1Frame rate mode : ConstantFrame rate : 23.976 (24000/1001) FPSOriginal frame rate : 23.976 (23976/1000) FPSColor space : YUVChroma subsampling : 4:2:0Bit depth : 8 bitsScan type : ProgressiveBits/(Pixel*Frame) : 0.146Stream size : 1.29 GiB (81%)Writing library : x264 core 148 r2705 3f5ed56Encoding settings : cabac=1 / ref=8 / deblock=1:-1:-1 / analyse=0x3:0x113 / me=umh / subme=11 / psy=1 / psy_rd=1.20:0.10 / mixed_ref=1 / me_range=32 / chroma_me=1 / trellis=2 / 8x8dct=1 / cqm=0 / deadzone=21,11 / fast_pskip=0 / chroma_qp_offset=-3 / threads=6 / lookahead_threads=1 / sliced_threads=0 / nr=0 / decimate=0 / interlaced=0 / bluray_compat=0 / constrained_intra=0 / bframes=10 / b_pyramid=2 / b_adapt=2 / b_bias=0 / direct=3 / weightb=1 / open_gop=0 / weightp=2 / keyint=250 / keyint_min=23 / scenecut=40 / intra_refresh=0 / rc=2pass / mbtree=0 / bitrate=1740 / ratetol=1.0 / qcomp=0.60 / qpmin=0 / qpmax=69 / qpstep=4 / cplxblur=20.0 / qblur=0.5 / ip_ratio=1.40 / pb_ratio=1.30 / aq=1:0.70Language : EnglishEncoded date : UTC 2016-12-17 21:07:15Tagged date : UTC 2016-12-17 21:07:55Color range : LimitedColor primaries : BT.709Transfer characteristics : BT.709Matrix coefficients : BT.709

Audio #1ID : 2Format : AACFormat/Info : Advanced Audio CodecFormat profile : LCCodec ID : 40Duration : 1 h 45 minBit rate mode : VariableBit rate : 128 kb/sMaximum bit rate : 133 kb/sChannel(s) : 2 channelsChannel positions : Front: L RSampling rate : 48.0 kHzFrame rate : 46.875 FPS (1024 spf)Compression mode : LossyStream size : 97.0 MiB (6%)Title : [DUB]_ Blu_ray CEE / [DUB]_ Blu_ray CEELanguage : RussianDefault : YesAlternate group : 1Encoded date : UTC 2016-12-17 21:07:32Tagged date : UTC 2016-12-17 21:07:55

Audio #2ID : 3Format : AACFormat/Info : Advanced Audio CodecFormat profile : LCCodec ID : 40Duration : 1 h 45 minBit rate mode : VariableBit rate : 128 kb/sMaximum bit rate : 133 kb/sChannel(s) : 2 channelsChannel positions : Front: L RSampling rate : 48.0 kHzFrame rate : 46.875 FPS (1024 spf)Compression mode : LossyStream size : 96.8 MiB (6%)Title : [DUB]_ Disney Buena Vista / [DUB]_ Disney Buena VistaLanguage : UkrainianDefault : NoAlternate group : 1Encoded date : UTC 2016-12-17 21:07:42Tagged date : UTC 2016-12-17 21:07:55

Audio #3ID : 4Format : AACFormat/Info : Advanced Audio CodecFormat profile : LCCodec ID : 40Duration : 1 h 45 minBit rate mode : VariableBit rate : 128 kb/sMaximum bit rate : 135 kb/sChannel(s) : 2 channelsChannel positions : Front: L RSampling rate : 48.0 kHzFrame rate : 46.875 FPS (1024 spf)Compression mode : LossyStream size : 97.0 MiB (6%)Title : [Original] / [Original]Language : EnglishDefault : NoAlternate group : 1Encoded date : UTC 2016-12-17 21:07:48Tagged date : UTC 2016-12-17 21:07:55

Text #1ID : 5Format : Timed TextMuxing mode : sbtlCodec ID : tx3gDuration : 1 h 45 minBit rate mode : VariableBit rate : 0 b/sStream size : 143 Bytes (0%)Title : Forced_ iTunes / Forced_ iTunesLanguage : RussianDefault : YesForced : NoAlternate group : 2Encoded date : UTC 2016-12-17 21:07:55Tagged date : UTC 2016-12-17 21:07:55

Text #2ID : 6Format : Timed TextMuxing mode : sbtlCodec ID : tx3gDuration : 1 h 45 minBit rate mode : VariableBit rate : 65 b/sStream size : 50.2 KiB (0%)Title : iTunes / iTunesLanguage : RussianDefault : NoForced : NoAlternate group : 2Encoded date : UTC 2016-12-17 21:07:55Tagged date : UTC 2016-12-17 21:07:55

Text #3ID : 7Format : Timed TextMuxing mode : sbtlCodec ID : tx3gDuration : 1 h 35 minBit rate mode : VariableBit rate : 48 b/sStream size : 33.4 KiB (0%)Title : Full / FullLanguage : EnglishDefault : NoForced : NoAlternate group : 2Encoded date : UTC 2016-12-17 21:07:55Tagged date : UTC 2016-12-17 21:07:55

Text #4ID : 8Format : Timed TextMuxing mode : sbtlCodec ID : tx3gDuration : 1 h 45 minBit rate mode : VariableBit rate : 55 b/sStream size : 42.6 KiB (0%)Title : SDH / SDHLanguage : EnglishDefault : NoForced : NoAlternate group : 2Encoded date : UTC 2016-12-17 21:07:55Tagged date : UTC 2016-12-17 21:07:55


Трекер:  [ 18-Дек-2016 12:00 ]

  

Скачать .torrent

Размер .torrent файла 16 KB


Размер: 1.58 GB
Хэш (hash) релиза: ed4cbd099da590e262456c95f611a0f3bddb16de

Еще никто не оставлял запись к записи скачать торрент [VIDEO] Книга джунглей The Jungle Book . Будь первым!

!Обратная связь