Genevieve Gaunt | épisode 16 streaming Checkmate | Earl Holliman

Скачать через торрент [VIDEO] Книга джунглей The Jungle Book бесплатно русская версия torrent активатор

Статистика раздачи
Размер:  467 MB   |    Зарегистрирован:  1 год 7 месяцев   |    .torrent скачан:  16 раз   |   
Раздают:  1  
   
загрузка...
 
Автор Сообщение

Galfimbul

avatar Galfimbul


<span class="post-font-serif1">Книга джунглей / The Jungle Book</span>

<span class="post-font-serif1">Год выпуска: 2016
Страна: Великобритания, США
Жанр: фэнтези, драма, приключения, семейный
Продолжительность: 01:45:54
Перевод: русский Профессиональный (полное дублирование) Blu-ray CEE
Cубтитры: нет</span>
<span class="post-font-serif1">Режиссер: Джон Фавро / Jon Favreau</span>
<span class="post-font-serif1">В ролях: Нил Сетхи, Билл Мюррей, Бен Кингсли, Идрис Эльба, Лупита Нионго, Скарлетт Йоханссон, Джанкарло Эспозито, Кристофер Уокен, Гарри Шендлинг, Брайтон Роуз и другие .</span>
<span class="post-font-serif1">Описание: Непримиримая борьба с опасным и страшным тигром Шерханом вынуждает Маугли покинуть волчью стаю и отправиться в деревню к людям. На пути мальчика ждут удивительные открытия и захватывающие приключения с пантерой Багирой, медведем Балу, питоном Каа и другими обитателями дремучих джунглей.</span>
<span class="post-font-serif1">Релиз группы </span>
<span class="post-font-serif1">Это первое участие Кристофера Уокена в проектах студии «Walt Disney Pictures» после фильма «Деревенские медведи» (2002).
В мультфильме «Книга джунглей» (1967) король Луи изображён орангутангом. В фильме он будет гигантопитеком. Считается, что эти предки орангутанов обитали в некоторых частях Индии. Авторы фильма предпочли гигантопитека, чтобы сделать фильм более фантастическим и потому, что орангутанги в Индии не водятся.
Это будет ремейк мультфильма 1967 года в виде художественного фильма с элементами компьютерной анимации. Авторы внесли в него некоторые изменения, включив в сюжет эпизоды из книги Редьярда Киплинга, чтобы сделать повествование более увлекательным.
Персонаж Балу озвучивает Билл Мюррей. В фильме «Книга джунглей: История Маугли» (1998) этот же персонаж озвучил его старший брат Брайан Дойл-Мюррей.
К мультфильму 1967 года «Книга джунглей» тексты песен написал Ричард М. Шерман. Он же напишет тексты песен для нового фильма.
Впервые в истории Каа станет персонажем женского пола.
При создании образов говорящих животных были использованы повадки настоящих зверей, которые актёрам пришлось копировать с помощью т. н. технологии захвата движения.
Это уже четвёртый совместный проект режиссёра Джона Фавро и композитора Джона Дебни. Они вместе работали над фильмами «Эльф» (2003), «Затура: Космическое приключение» (2005) и «Железный человек 2» (2010).
Волчата в фильме носят имена актёров и других членов съёмочной группы.
Балу насвистывает песенку «The Bare Necessities» из диснеевского мультфильма 1967 года.
Вначале премьера была назначена на октябрь 2015, но затем перенесена на 2016 год.
Все места, где происходит действие фильма, являются продуктом компьютерных технологий.
Первая совместная работа Скарлетт Йоханссон и Билла Мюррея после фильма «Трудности перевода» (2003).
Бен Кингсли, Скарлетт Йоханссон и Идрис Эльба снимались в фильмах по комиксам студии «Marvel»; Кристофер Уокен сыграл в фильме «Бэтмен возвращается» (1992) по комиксам «DC»; Билл Мюррей принял участие в съёмках «Гарфилда» (2004) по мотивам газетных комиксов.
Джанкарло Эспозито, чьим голосом говорит Акела, снимался в рекламе компьютерной игры «Destiny» (2014), где он прочёл отрывок из стихотворения «Закон джунглей» из «Второй книги джунглей» Редьярда Киплинга.
Это тринадцатый фильм студии «Walt Disney Pictures», музыку к которому написал Джон Дебни.
Первый фильм студии «Walt Disney Pictures», в котором сыграл Билл Мюррей. Прежде он снимался только в фильмах, выходивших под лейблом «Touchstone Pictures» (кинематографическое подразделение компании Диснея): «А как же Боб?» (1991), «Эд Вуд» (1994), «Академия Рашмор» (1998), «Колыбель будет качаться» (1999), «Семейка Тененбаум» (2001) и «Водная жизнь» (2004). Кроме того, Мюррей стал вторым актёром из фильма «Охотники за привидениями» (1984), сыгравшим медведя. До него это сделал Дэн Эйкройд в 2010 году, когда снялся в главной роли в фильме «Медведь Йоги».</span>

<span class="post-font-serif1">Качество: HDRip / рип с BDRip 1080p
Формат: MP4
Видео кодек: XviD
Аудио кодек: AAC
Видео: 480x256 AR:1.85 481 kbps 23.976 fps
Аудио: [Russian] 2ch 48 kHz 128 kbps - [Dub] Профессиональный (полное дублирование) Blu-ray CEE</span>
GeneralComplete name : D:\Torrents\The Jungle Book.2016.HDRip.XviD.480x.rip by Frost O.S.mp4Format : MPEG-4Format profile : Base MediaCodec ID : isom (isom/iso2)File size : 467 MiBDuration : 1 h 45 minOverall bit rate mode : VariableOverall bit rate : 617 kb/sMovie name : The Jungle Book 2016 HDRip XviD 480x rip by Frost O SGenre : ActionContentType : Short FilmEncoded date : UTC 2016-12-17 21:12:40Tagged date : UTC 2016-12-17 21:13:01Writing application : MkvToMp4 version: 0.224 (x64)Cover : YesComment : rip by Frost O.S

VideoID : 1Format : MPEG-4 VisualFormat profile : Advanced [email protected] settings, BVOP : YesFormat settings, QPel : NoFormat settings, GMC : No warppointsFormat settings, Matrix : CustomCodec ID : 20Duration : 1 h 45 minBit rate mode : VariableBit rate : 481 kb/sMaximum bit rate : 3 215 kb/sWidth : 480 pixelsHeight : 256 pixelsDisplay aspect ratio : 1.85:1Frame rate mode : ConstantFrame rate : 23.976 (24000/1001) FPSOriginal frame rate : 23.976 (23976/1000) FPSColor space : YUVChroma subsampling : 4:2:0Bit depth : 8 bitsScan type : ProgressiveCompression mode : LossyBits/(Pixel*Frame) : 0.163Stream size : 364 MiB (78%)Title : avi_GPAC0.5.2_DEV_rev248_g39d5978_masterWriting library : XviD 1.2.1 (UTC 2008-12-04)Language : EnglishTagged date : UTC 2016-12-17 21:12:46

AudioID : 2Format : AACFormat/Info : Advanced Audio CodecFormat profile : LCCodec ID : 40Duration : 1 h 45 minBit rate mode : VariableBit rate : 128 kb/sMaximum bit rate : 133 kb/sChannel(s) : 2 channelsChannel positions : Front: L RSampling rate : 48.0 kHzFrame rate : 46.875 FPS (1024 spf)Compression mode : LossyStream size : 97.0 MiB (21%)Title : DUB_ Blu_ray CEE / DUB_ Blu_ray CEELanguage : RussianDefault : YesAlternate group : 1Encoded date : UTC 2016-12-17 21:12:44Tagged date : UTC 2016-12-17 21:12:46


Трекер:  [ 18-Дек-2016 12:00 ]

  

Скачать .torrent

Размер .torrent файла 18 KB


Размер: 467 MB
Хэш (hash) релиза: d377e13fcc39a8fb83fb75d1e7ebd961e2ee2c7e

Еще никто не оставлял запись к записи скачать торрент [VIDEO] Книга джунглей The Jungle Book . Будь первым!

!Обратная связь