GameCube | El Mago de las Mentiras | Missing (2018)

Скачать через торрент [VIDEO] Ледокол бесплатно русская версия torrent активатор

Статистика раздачи
Размер:  2.56 GB   |    Зарегистрирован:  1 год 7 месяцев   |    .torrent скачан:  36 раз   |   
Раздают:  1  
   
загрузка...
 
Автор Сообщение

Galfimbul

avatar Galfimbul


Ледокол
Премьера: 2016
Оригинальное название: Ледокол
Страна: Россия
Жанр: драма
Возраст: 12+

Режиссер: Николай Хомерики

В ролях: Пётр Фёдоров мл., Сергей Пускепалис, Анна Михалкова, Ольга Смирнова (II), Александр Яценко, Александр Паль, Виталий Хаев, Алексей Барабаш, Дмитрий Муляр, Артур Чиргадзе

Описание: Основано на реальных событиях. 1985 год. Навстречу ледоколу «Михаил Громов» движется огромный айсберг. Уходя от столкновения с ним, судно попадает в ледовый плен и оказывается в вынужденном дрейфе вблизи побережья Антарктиды. Вокруг зловещая тишина и жуткий холод. Горючее на исходе… Нервы на пределе… И даже если можно было бы уйти — деваться все равно некуда. У командования ледокола нет права на ошибку. Одно неверное решение — и тяжелые льды раздавят судно…

Продолжительность: 02:03:57
Перевод: Оригинал (русский)

Автор рипа:

Качество видео: BDRip Исходник: Blu-Ray Remux (1080p) Формат: mp4
Видео кодек: MPEG-4 AVC Аудио кодек: AAC
Видео: 1280x536 (2.40:1) at 24.000 fps, AVC at 2 820 kbps avg, 0.171 bit/pixel
Аудио №1 Rus: 48.0 KHz, AAC, 2 ch, 128.0 Kbps
Субтитры: нет
Навигация по главам: есть
Размер: 2.56 GiB
avs [info]: 1280x536p 1:1 @ 24/1 fps (cfr)
x264 [info]: using SAR=1/1
x264 [info]: using cpu capabilities: MMX2 SSE2Fast SSSE3 Cache64
x264 [info]: profile High, level 4.1
x264 [info]: frame I:1498 Avg QP:15.00 size: 94720
x264 [info]: frame P:39140 Avg QP:18.39 size: 30336
x264 [info]: frame B:137869 Avg QP:19.93 size: 9377
x264 [info]: consecutive B-frames: 1.9% 2.8% 6.8% 24.3% 22.5% 33.2% 5.9% 1.2% 1.5%
x264 [info]: mb I I16..4: 8.4% 69.5% 22.1%
x264 [info]: mb P I16..4: 2.7% 14.5% 1.7% P16..4: 39.5% 21.6% 11.7% 0.0% 0.0% skip: 8.3%
x264 [info]: mb B I16..4: 0.3% 1.4% 0.2% B16..8: 40.9% 8.3% 1.7% direct: 7.5% skip:39.7% L0:41.9% L1:47.7% BI:10.5%
x264 [info]: 8x8 transform intra:75.1% inter:68.1%
x264 [info]: coded y,uvDC,uvAC intra: 73.5% 80.1% 55.5% inter: 21.9% 28.4% 7.3%
x264 [info]: i16 v,h,dc,p: 35% 19% 10% 35%
x264 [info]: i8 v,h,dc,ddl,ddr,vr,hd,vl,hu: 20% 14% 25% 5% 7% 8% 8% 7% 7%
x264 [info]: i4 v,h,dc,ddl,ddr,vr,hd,vl,hu: 23% 17% 13% 6% 10% 9% 9% 7% 6%
x264 [info]: i8c dc,h,v,p: 51% 20% 20% 9%
x264 [info]: Weighted P-Frames: Y:2.6% UV:1.4%
x264 [info]: ref P L0: 45.4% 11.3% 18.4% 6.7% 5.8% 4.0% 3.7% 2.2% 2.2% 0.3% 0.0%
x264 [info]: ref B L0: 79.0% 10.1% 4.5% 2.3% 1.6% 1.4% 0.8% 0.3%
x264 [info]: ref B L1: 94.5% 5.5%
x264 [info]: kb/s:2820.23
encoded 178507 frames, 1.53 fps, 2820.23 kb/s
GeneralComplete name : D:\Torrents\Download\Ledokol_2016_KinoGadget.mp4Format : MPEG-4Format profile : Base MediaCodec ID : isom (isom/avc1/iso6)File size : 2.56 GiBDuration : 2 h 3 minOverall bit rate mode : VariableOverall bit rate : 2 956 kb/sMovie name : Ледокол | KinoGadgetPerformer : Николай ХомерикиDirector : Николай ХомерикиActor : Пётр Фёдоров мл. / Сергей Пускепалис / Анна Михалкова / Ольга Смирнова (II) / Александр Яценко / Александр Паль / Виталий Хаев / Алексей Барабаш / Дмитрий Муляр / Артур ЧиргадзеScreenplay by : Алексей Онищенко / Андрей ЗолотаревProducer : Игорь Толстунов / Сергей Козлов / Александр КозловGenre : DramaContentType : Short FilmRecorded date : 2016Encoded date : UTC 2016-12-17 02:43:30Tagged date : UTC 2016-12-17 06:38:43Cover : YesContentRating : mpaa|PG-13|300|LongDescription : Основано на реальных событиях. 1985 год. Навстречу ледоколу «Михаил Громов» движется огромный айсберг. Уходя от столкновения с ним, судно попадает в ледовый плен и оказывается в вынужденном дрейфе вблизи побережья Антарктиды. Вокруг зловещая тишина и жуткий холод. Горючее на исходе… Нервы на пределе… И даже если можно было бы уйти — деваться все равно некуда. У командования ледокола нет права на ошибку. Одно неверное решение — и тяжелые льды раздавят судно…HDVideo : Yes

VideoID : 1Format : AVCFormat/Info : Advanced Video CodecFormat profile : [email protected] settings, CABAC : YesFormat settings, ReFrames : 9 framesCodec ID : avc1Codec ID/Info : Advanced Video CodingDuration : 2 h 3 minBit rate : 2 820 kb/sMaximum bit rate : 18.7 Mb/sWidth : 1 280 pixelsHeight : 536 pixelsDisplay aspect ratio : 2.40:1Frame rate mode : ConstantFrame rate : 24.000 FPSColor space : YUVChroma subsampling : 4:2:0Bit depth : 8 bitsScan type : ProgressiveBits/(Pixel*Frame) : 0.171Stream size : 2.44 GiB (95%)Writing library : x264 core 148 r2638 7599210Encoding settings : cabac=1 / ref=9 / deblock=1:-2:-1 / analyse=0x3:0x113 / me=umh / subme=7 / psy=1 / psy_rd=1.00:0.15 / mixed_ref=1 / me_range=32 / chroma_me=1 / trellis=2 / 8x8dct=1 / cqm=0 / deadzone=21,11 / fast_pskip=1 / chroma_qp_offset=-3 / threads=3 / lookahead_threads=1 / sliced_threads=0 / nr=0 / decimate=1 / interlaced=0 / bluray_compat=0 / constrained_intra=0 / bframes=8 / b_pyramid=2 / b_adapt=2 / b_bias=0 / direct=1 / weightb=1 / open_gop=0 / weightp=2 / keyint=240 / keyint_min=24 / scenecut=40 / intra_refresh=0 / rc_lookahead=60 / rc=crf / mbtree=1 / crf=18.5 / qcomp=0.60 / qpmin=0 / qpmax=69 / qpstep=4 / vbv_maxrate=62500 / vbv_bufsize=78125 / crf_max=0.0 / nal_hrd=none / filler=0 / ip_ratio=1.40 / aq=1:1.00Encoded date : UTC 2016-12-17 02:43:30Tagged date : UTC 2016-12-17 02:45:12

AudioID : 2Format : AACFormat/Info : Advanced Audio CodecFormat profile : LCCodec ID : 40Duration : 2 h 3 minBit rate mode : VariableBit rate : 128 kb/sMaximum bit rate : 135 kb/sChannel(s) : 2 channelsChannel positions : Front: L RSampling rate : 48.0 kHzFrame rate : 46.875 FPS (1024 spf)Compression mode : LossyStream size : 113 MiB (4%)Title : Original [license]Language : RussianEncoded date : UTC 2016-12-15 17:49:17Tagged date : UTC 2016-12-17 02:45:12

Menu00:00:00.000 : Chapter 0100:01:27.666 : Chapter 0200:14:46.833 : Chapter 0300:29:43.208 : Chapter 0400:43:48.375 : Chapter 0501:00:09.125 : Chapter 0601:14:15.625 : Chapter 0701:29:17.625 : Chapter 0801:47:28.041 : Chapter 09
<a href="tracker.php?rid=39840292" class="postLink"> </a>

Трекер:  [ 17-Дек-2016 10:00 ]

  

Скачать .torrent

Размер .torrent файла 13 KB


Размер: 2.56 GB
Хэш (hash) релиза: 862f59331b9a1b8963f7af70e906e403d7ba9936

Торренты, похожие на [VIDEO] Ледокол скачать торрент

Форум Название Автор Размер S L Добавлен
Видео (Фильмы/Клипы) ·· [VIDEO] Ледокол (Николай Хомерики) [2016, Россия, Драма, HDRip] [MP4, 640x] Galfimbul 833932931795 MB 0 0 1479734962

16:29

21-Ноя-16

Еще никто не оставлял запись к записи скачать торрент [VIDEO] Ледокол . Будь первым!

!Обратная связь