Çizgi Film
Miss Potter (2006)

Скачать через торрент [VIDEO] Освобождение. Фильм четвертый. Битва за Берлин бесплатно русская версия torrent активатор

Статистика раздачи
Размер:  1.87 GB   |    Зарегистрирован:  1 год 4 месяца   |    .torrent скачан:  31 раз   |   
Раздают:  1  
   
загрузка...
 
Автор Сообщение

Galfimbul

avatar Galfimbul



<span class="post-font-serif1">Освобождение. Фильм четвертый. Битва за Берлин</span>
<span class="post-font-serif1">Год выпуска: 1971
Страна: СССР, Германия (ГДР), Польша, Италия
Жанр: драма, мелодрама, военный
Продолжительность: 01:26:07
Перевод: Не требуется
Cубтитры: русские, английские

Режиссер: Юрий Озеров
Сценарий: Юрий Бондарев, Оскар Курганов, Юрий Озеров
Оператор: Игорь Слабневич
Композитор: Юрий Левитин
Художник: Александр Мягков, Диляра Озерова
Монтаж: Екатерина Карпова

В ролях: Николай Олялин, Лариса Голубкина, Борис Зайденберг, Сергей Никоненко, Михаил Ульянов, Владлен Давыдов, Василий Шукшин, Евгений Буренков, Дмитрий Франько, Юрий Каморный, Бухути Закариадзе, Михаил Ножкин, Иван Переверзев, Владислав Стржельчик, Анатолий Ромашин, Николай Рыбников, Валерий Носик, Владимир Коренев, Эдуард Изотов, Юрий Легков, Всеволод Санаев, Владимир Самойлов, Игорь Озеров, Сергей Харченко, Николай Рушковский, Константин Забелин, Виктор Авдюшко, Владимир Заманский, Клеон Протасов, Александр Афанасьев, Алексей Глазырин, Пётр Глебов, Григорий Михайлов, Пётр Щербаков, Роман Ткачук, Сергей Ляхницкий, Валерий Карен, Виктор Байков, Николай Боголюбов, Владимир Герасимов, Михаил Глузский, Николай Ерёменко (старший), Петр Любешкин, Иван Миколайчук, Лев Прыгунов, Роман Хомятов, Волдемар Акуратерс, Алексей Алексеев, Вадим Грачёв, Юлия Диоши, Юрий Мартынов, Юрий Померанцев, Михаил Постников, Алексей Преснецов, Олев Эскола, Анатолий Кузнецов, Николай Лебедев (II), Лев Поляков, Александр Смирнов, Александр Барушной, Виктор Борцов, Елизавета Алексеева (II), Леонид Довлатов, Николай Симкин, Юрий Дуров, Виктор Шахов, Иосиф (Сосо) Гогичайшвили, В. Вахлин, Владимир Разумовский, Фриц Диц

Описание: Фильм четвертый — «Битва за Берлин». 1945 г. Последние месяцы войны. Именно в эти дни решалась судьба порабощенной Европы. Началась Висло-Одерская операция. Три фронта под командованием Конева, Жукова и Рокоссовского устремились к столице Германии. К Берлину идут и англо-американские войска. «Опередить русских», — предлагает Черчиль и начинаются тайные переговоры с эмиссарами Гитлера, разоблаченные Ялтинской конференцией. Судьба Берлина решится на полях сражений.

Качество: BDRip | <span class="post-font-serif1">Освобождение / Befreiung / Liberation (1969-1971) {3-Disc Remastered Edition} Blu-ray [Custom] 1080p AVC DD2.0 HDCLUB
Формат: MP4

Видео: AVC (x264), 1280x544 (2.35:1), ~2960 kbps, 24.000 fps, 0.177 bpp
Аудио: Русский, AСC, 48 KHz, 2 ch, 160 kbps

[b]Релиз:

</span></a></span></span></span>
[spoiler="x264 [info]"]
crop(0, 132, -0, -131)
raw [info]: 1280x544p 1:1 @ 24/1 fps (cfr)
x264 [info]: using SAR=1/1
x264 [info]: profile High, level 4.1
x264 [info]: frame I:615 Avg QP:17.95 size: 62324
x264 [info]: frame P:23265 Avg QP:20.60 size: 28010
x264 [info]: frame B:99339 Avg QP:22.69 size: 12178
x264 [info]: consecutive B-frames: 0.9% 1.5% 5.0% 14.5% 14.1% 41.2% 7.3% 5.1% 4.3% 1.6% 1.4% 3.0%
x264 [info]: mb I I16..4: 2.1% 88.6% 9.4%
x264 [info]: mb P I16..4: 0.5% 10.8% 0.6% P16..4: 37.7% 39.6% 9.4% 0.0% 0.0% skip: 1.4%
x264 [info]: mb B I16..4: 0.1% 1.0% 0.0% B16..8: 41.0% 19.0% 2.5% direct: 8.6% skip:27.7% L0:47.2% L1:44.2% BI: 8.6%
x264 [info]: 8x8 transform intra:90.5% inter:69.3%
x264 [info]: direct mvs spatial:99.4% temporal:0.6%
x264 [info]: coded y,uvDC,uvAC intra: 89.4% 48.2% 18.3% inter: 35.7% 21.3% 0.3%
x264 [info]: i16 v,h,dc,p: 30% 16% 5% 49%
x264 [info]: i8 v,h,dc,ddl,ddr,vr,hd,vl,hu: 6% 6% 6% 10% 16% 13% 16% 11% 15%
x264 [info]: i4 v,h,dc,ddl,ddr,vr,hd,vl,hu: 7% 7% 5% 8% 15% 14% 16% 11% 16%
x264 [info]: i8c dc,h,v,p: 46% 30% 13% 11%
x264 [info]: ref P L0: 46.8% 19.4% 11.4% 7.2% 5.3% 5.3% 4.5% 0.1%
x264 [info]: ref B L0: 69.4% 12.4% 7.7% 4.4% 3.3% 2.0% 0.8%
x264 [info]: ref B L1: 93.6% 6.4%
x264 [info]: kb/s:2960.18
<pre>
ОбщееУникальный идентификатор : 246590058477043358349052446011349863636 (0xB983848BFAAFA3C9A62057E3EE790CD4)Полное имя : ...\[email protected]Формат : MatroskaВерсия формата : Version 4 / Version 2Размер файла : 1,87 ГбайтПродолжительность : 1 ч. 26 м.Общий поток : 3104 Кбит/секНазвание фильма : Освобождение. Битва за Берлин \1971 [email protected]=-Дата кодирования : UTC 2016-12-15 09:29:27Программа кодирования : mkvmerge v9.6.0 ('Slave To Your Mind') 32bitБиблиотека кодирования : libebml v1.3.4 + libmatroska v1.4.5Attachments : 500.jpg

ВидеоИдентификатор : 1Формат : AVCФормат/Информация : Advanced Video CodecПрофиль формата : [email protected]Параметр CABAC формата : ДаПараметр ReFrames формата : 8 кадровИдентификатор кодека : V_MPEG4/ISO/AVCПродолжительность : 1 ч. 25 м.Битрейт : 2960 Кбит/секШирина : 1280 пикселейВысота : 544 пикселяСоотношение сторон : 2,35:1Режим частоты кадров : ПостоянныйЧастота кадров : 24,000 кадра/секЦветовое пространство : YUVСубдискретизация насыщенности : 4:2:0Битовая глубина : 8 битТип развёртки : ПрогрессивнаяБит/(Пиксели*Кадры) : 0.177Размер потока : 1,77 Гбайт (95%)Заголовок : Rip by nnlabetikБиблиотека кодирования : x264 core 148 r2744 b97ae06Настройки программы : cabac=1 / ref=8 / deblock=1:-2:-1 / analyse=0x3:0x113 / me=umh / subme=11 / psy=1 / psy_rd=1.00:0.00 / mixed_ref=1 / me_range=32 / chroma_me=1 / trellis=2 / 8x8dct=1 / cqm=0 / deadzone=21,11 / fast_pskip=0 / chroma_qp_offset=-2 / threads=4 / lookahead_threads=1 / sliced_threads=0 / nr=0 / decimate=1 / interlaced=0 / bluray_compat=0 / constrained_intra=0 / bframes=11 / b_pyramid=2 / b_adapt=2 / b_bias=0 / direct=3 / weightb=1 / open_gop=0 / weightp=0 / keyint=230 / keyint_min=23 / scenecut=40 / intra_refresh=0 / rc_lookahead=50 / rc=2pass / mbtree=0 / bitrate=2960 / ratetol=1.0 / qcomp=0.60 / qpmin=0 / qpmax=69 / qpstep=4 / cplxblur=20.0 / qblur=0.5 / vbv_maxrate=50000 / vbv_bufsize=62500 / nal_hrd=none / filler=0 / ip_ratio=1.40 / pb_ratio=1.30 / aq=1:1.00Язык : RussianDefault : ДаForced : НетЦветовой диапазон : LimitedОсновные цвета : BT.709Характеристики трансфера : BT.709Коэффициенты матрицы : BT.709

АудиоИдентификатор : 2Формат : AACФормат/Информация : Advanced Audio CodecПрофиль формата : LCИдентификатор кодека : A_AACПродолжительность : 1 ч. 26 м.Битрейт : 161 Кбит/секКаналы : 2 каналаРасположение каналов : Front: L RЧастота : 48,0 КГцЧастота кадров : 46,875 кадров/сек (1024 spf)Метод сжатия : С потерямиРазмер потока : 99,0 Мбайт (5%)Язык : RussianDefault : ДаForced : Нет

Текст #1Идентификатор : 3Формат : UTF-8Идентификатор кодека : S_TEXT/UTF8Идентификатор кодека/Информация : UTF-8 Plain TextПродолжительность : 1 ч. 25 м.Битрейт : 64 бит/секCount of elements : 652Размер потока : 40,4 Кбайт (0%)Язык : RussianDefault : НетForced : Нет

Текст #2Идентификатор : 4Формат : UTF-8Идентификатор кодека : S_TEXT/UTF8Идентификатор кодека/Информация : UTF-8 Plain TextПродолжительность : 1 ч. 26 м.Битрейт : 38 бит/секCount of elements : 670Размер потока : 24,1 Кбайт (0%)Язык : EnglishDefault : НетForced : Нет

Меню00:00:00.000 : :Chapter 0100:00:11.958 : :Chapter 0200:04:27.916 : :Chapter 0300:09:13.333 : :Chapter 0400:14:48.833 : :Chapter 0500:19:21.541 : :Chapter 0600:27:51.166 : :Chapter 0700:35:04.416 : :Chapter 0800:38:57.750 : :Chapter 0900:46:16.583 : :Chapter 1000:48:06.875 : :Chapter 1100:51:26.791 : :Chapter 1200:53:29.166 : :Chapter 1300:59:15.958 : :Chapter 1401:03:41.125 : :Chapter 1501:08:20.541 : :Chapter 1601:16:08.958 : :Chapter 1701:25:25.375 : :Chapter 18
</pre>[/spoiler]

Трекер:  [ 15-Дек-2016 16:00 ]

  

Скачать .torrent

Размер .torrent файла 19 KB


Размер: 1.87 GB
Хэш (hash) релиза: 005fa53cf791e72d2480820251a52ba72c91ef48

Еще никто не оставлял запись к записи скачать торрент [VIDEO] Освобождение. Фильм четвертый. Битва за Берлин . Будь первым!

!Обратная связь