Ariana Grande Love Me Harder Free
Burden of Truth S01E09 REPACK 720p WEBRip x264-TBS[eztv] mkv

Скачать через торрент [VIDEO] Назад в будущее 1, 2, 3: Трилогия Back to the Future Part I, II, III: Trilogy бесплатно русская версия torrent активатор

Статистика раздачи
Размер:  9.35 GB   |    Зарегистрирован:  1 год 4 месяца   |    .torrent скачан:  80 раз   |   
Раздают:  1  
   
загрузка...
 
Автор Сообщение

Galfimbul

avatar Galfimbul


<span class="post-font-serif1">Назад в будущее 1, 2, 3: Трилогия / Back to the Future Part I, II, III: Trilogy</span>

<span class="post-font-serif1">Назад в будущее 1 / Back to the Future Part I</span>
<span class="post-font-serif1">«Семнадцатилетний Марти МакФлай пришел вчера домой пораньше. На 30 лет раньше. »</span>

<span class="post-font-serif1">Год выпуска: 1985
Страна: США
Жанр: фантастика, приключения, семейный
Продолжительность: 01:56:00
Перевод №1: русский Профессиональный (полное дублирование) Дубляж с лицензии (Пифагор)
Перевод №2: русский Профессиональный (многоголосый, закадровый) Стрелков Станислав+Зотов Константин+Женщина [FDV]
Перевод №3: русский Профессиональный (многоголосый, закадровый) Форостенко Олег+Филимонов Дмитрий+Казанцев Андрей+Никонова Жанна [ОРТ]
Перевод №4: русский Профессиональный (двухголосый, закадровый) Стрелков Станислав+Божок Татьяна [Киномания] [DDV] [Biz video]
Перевод №5: русский Профессиональный (двухголосый, закадровый) Тарадайкин Игорь+Германова Любовь [Премьер-видео]
Перевод №6: русский Профессиональный (двухголосый, закадровый) Гланц Пётр+Лютая Евгения (псевдо-дубляж)
Перевод №7: русский Профессиональный (двухголосый, закадровый) Карусель
Перевод №8: русский Профессиональный (двухголосый, закадровый) Андреев Вадим+Гнилова Людмила [НТВ=СТС]
Перевод №9: украинский Профессиональный (двухголосый, закадровый) Телеканал 1+1
Перевод №10: украинский Профессиональный (двухголосый, закадровый) Телеканал Новый канал
Перевод №11: русский Авторский (одноголосый, закадровый) Гаврилов Андрей (ранний)
Перевод №12: русский Авторский (одноголосый, закадровый) Гаврилов Андрей (поздний)
Перевод №13: русский Авторский (одноголосый, закадровый) Михалёв Алексей
Перевод №14: русский Авторский (одноголосый, закадровый) Горчаков Василий
Перевод №15: русский Авторский (одноголосый, закадровый) Дубровин Владимир
Перевод №16: русский Одноголосый (закадровый) Переговорщик Гаврилова-раннего
Перевод №17: русский Одноголосый (закадровый) Неизвестный [неполный]
Оригинальная дорожка: Есть
Cубтитры: русские, еще (русские на надписи), английские</span>
<span class="post-font-serif1">Режиссер: Роберт Земекис / Robert Zemeckis</span>
<span class="post-font-serif1">В ролях: Майкл Дж. Фокс, Кристофер Ллойд, Лиа Томпсон, Криспин Гловер, Томас Ф. Уилсон, Клодия Уэллс, Марк МакКлюр, Уэнди Джо Спербер, Джордж ДиЧенцо, Фрэнсис Ли МакКейн и другие .</span>
<span class="post-font-serif1">Описание: Подросток Марти с помощью машины времени, сооруженной его другом профессором доком Брауном, попадает из 80-х в далекие 50-е. Там он встречается со своими будущими родителями, еще подростками, и другом-профессором, совсем молодым.

Он нарушает естественный ход событий прошлого, чем вызывает массу смешных и драматических ситуаций. Собственная смекалка и фантазия профессора помогают преодолеть все препятствия и благополучно вернуться к себе, в свое время.</span>
<span class="post-font-serif1">Релиз группы </span>
<span class="post-font-serif1">Качество: BDRip / <a href="viewtopic.php?t=3228708" class="postLink">Blu-ray 1080p [25th Anniversary Edition]</a> / звуковые дорожки <a href="viewtopic.php?t=3305095" class="postLink">отсюда</a>
Формат: MP4
Видео кодек: H.264
Аудио кодек: AAC
Видео: 960x520 AR:1.85 1740 kbps 23.976 fps
Аудио №1: [Russian] 2ch 48 kHz 128 kbps - [Dub] Профессиональный (полное дублирование) Дубляж с лицензии (Пифагор)
Аудио №2: [Russian] 2ch 48 kHz 128 kbps - [MVO] Профессиональный (многоголосый, закадровый) Стрелков Станислав+Зотов Константин+Женщина [FDV]
Аудио №3: [Russian] 2ch 48 kHz 128 kbps - [MVO] Профессиональный (многоголосый, закадровый) Форостенко Олег+Филимонов Дмитрий+Казанцев Андрей+Никонова Жанна [ОРТ]
Аудио №4: [Russian] 2ch 48 kHz 128 kbps - [DVO] Профессиональный (двухголосый, закадровый) Стрелков Станислав+Божок Татьяна [Киномания] [DDV] [Biz video]
Аудио №5: [Russian] 2ch 48 kHz 128 kbps - [DVO] Профессиональный (двухголосый, закадровый) Тарадайкин Игорь+Германова Любовь [Премьер-видео]
Аудио №6: [Russian] 2ch 48 kHz 128 kbps - [DVO] Профессиональный (двухголосый, закадровый) Гланц Пётр+Лютая Евгения (псевдо-дубляж)
Аудио №7: [Russian] 2ch 48 kHz 128 kbps - [DVO] Профессиональный (двухголосый, закадровый) Карусель
Аудио №8: [Russian] 2ch 48 kHz 128 kbps - [DVO] Профессиональный (двухголосый, закадровый) Андреев Вадим+Гнилова Людмила [НТВ=СТС]
Аудио №9: [Ukrainian] 2ch 48 kHz 128 kbps - [DVO] Профессиональный (двухголосый, закадровый) Телеканал 1+1
Аудио №10: [Ukrainian] 2ch 48 kHz 128 kbps - [DVO] Профессиональный (двухголосый, закадровый) Телеканал Новый канал
Аудио №11: [Russian] 2ch 48 kHz 128 kbps - [VO] Авторский (одноголосый, закадровый) Гаврилов Андрей (ранний)
Аудио №12: [Russian] 2ch 48 kHz 128 kbps - [VO] Авторский (одноголосый, закадровый) Гаврилов Андрей (поздний)
Аудио №13: [Russian] 2ch 48 kHz 128 kbps - [VO] Авторский (одноголосый, закадровый) Михалёв Алексей
Аудио №14: [Russian] 2ch 48 kHz 128 kbps - [VO] Авторский (одноголосый, закадровый) Горчаков Василий
Аудио №15: [Russian] 2ch 48 kHz 128 kbps - [VO] Авторский (одноголосый, закадровый) Дубровин Владимир
Аудио №16: [Russian] 2ch 48 kHz 128 kbps - [VO] Одноголосый (закадровый) Переговорщик Гаврилова-раннего
Аудио №17: [Russian] 2ch 48 kHz 128 kbps - [VO] Одноголосый (закадровый) Неизвестный [неполный]
Аудио №18: [English] 2ch 48 kHz 128 kbps - Оригинал (английский)</span>
avs [info]: 960x520p 1:1 @ 2997/125 fps (cfr)
x264 [info]: using SAR=1/1
x264 [info]: using cpu capabilities: MMX2 SSE2Fast SSSE3 SSE4.2 AVX FMA3 AVX2 LZCNT BMI2
x264 [info]: profile High, level 4.1

x264 [info]: frame I:1349 Avg QP:20.04 size: 58175
x264 [info]: frame P:39390 Avg QP:23.56 size: 17897
x264 [info]: frame B:126158 Avg QP:25.35 size: 5788
x264 [info]: consecutive B-frames: 2.4% 3.5% 9.4% 28.0% 22.9% 29.7% 2.7% 0.8% 0.4%
x264 [info]: mb I I16..4: 4.8% 77.1% 18.1%
x264 [info]: mb P I16..4: 0.5% 7.5% 1.6% P16..4: 37.4% 38.4% 9.2% 0.0% 0.0% skip: 5.4%
x264 [info]: mb B I16..4: 0.0% 0.7% 0.2% B16..8: 40.5% 17.4% 2.4% direct: 3.6% skip:35.1% L0:43.3% L1:47.6% BI: 9.1%
x264 [info]: 8x8 transform intra:78.0% inter:61.1%
x264 [info]: direct mvs spatial:98.8% temporal:1.2%
x264 [info]: coded y,uvDC,uvAC intra: 90.5% 68.0% 28.7% inter: 20.1% 10.5% 1.7%
x264 [info]: i16 v,h,dc,p: 28% 23% 6% 42%
x264 [info]: i8 v,h,dc,ddl,ddr,vr,hd,vl,hu: 10% 5% 4% 11% 17% 15% 14% 12% 11%
x264 [info]: i4 v,h,dc,ddl,ddr,vr,hd,vl,hu: 12% 7% 4% 9% 15% 16% 13% 12% 12%
x264 [info]: i8c dc,h,v,p: 30% 29% 22% 20%
x264 [info]: Weighted P-Frames: Y:10.1% UV:5.2%
x264 [info]: ref P L0: 49.9% 12.1% 17.4% 6.0% 5.1% 3.6% 3.5% 2.0% 0.3% 0.0%
x264 [info]: ref B L0: 80.8% 9.1% 4.6% 2.3% 1.7% 1.1% 0.5%
x264 [info]: ref B L1: 96.1% 3.9%
x264 [info]: kb/s:1739.52

encoded 166897 frames, 13.87 fps, 1739.52 kb/s
GeneralComplete name : D:\Torrents\Back to the Future Part I, II, III.Trilogy.1985-1990.BDRip.x264.960x\Back to the Future Part I.1985.BDRip.x264.960x.rip by Frost O.S.mp4Format : MPEG-4Format profile : Base MediaCodec ID : isom (isom/avc1/iso2)File size : 3.33 GiBDuration : 1 h 56 minOverall bit rate mode : VariableOverall bit rate : 4 112 kb/sMovie name : Back to the Future Part I 1985 BDRip x264 960x rip by Frost O SGenre : FantasyContentType : Short FilmEncoded date : UTC 2016-12-13 06:16:47Tagged date : UTC 2016-12-13 07:05:31Writing application : MkvToMp4 version: 0.224 (x64)Cover : YesComment : rip by Frost O.SLongDescription : Подросток Марти с помощью машины времени, сооруженной его другом профессором доком Брауном, попадает из 80-х в далекие 50-е. Там он встречается со своими будущими родителями, еще подростками, и другом-профессором, совсем молодым. / Он нарушает естественный ход событий прошлого, чем вызывает массу смешных и драматических ситуаций. Собственная смекалка и фантазия профессора помогают преодолеть все препятствия и благополучно вернуться к себе, в свое время.

VideoID : 1Format : AVCFormat/Info : Advanced Video CodecFormat profile : [email protected] settings, CABAC : YesFormat settings, ReFrames : 8 framesCodec ID : avc1Codec ID/Info : Advanced Video CodingDuration : 1 h 56 minBit rate : 1 740 kb/sMaximum bit rate : 5 391 kb/sWidth : 960 pixelsHeight : 520 pixelsDisplay aspect ratio : 1.85:1Frame rate mode : ConstantFrame rate : 23.976 (24000/1001) FPSOriginal frame rate : 23.976 (23976/1000) FPSColor space : YUVChroma subsampling : 4:2:0Bit depth : 8 bitsScan type : ProgressiveBits/(Pixel*Frame) : 0.145Stream size : 1.41 GiB (42%)Writing library : x264 core 148 r2705 3f5ed56Encoding settings : cabac=1 / ref=8 / deblock=1:-1:-1 / analyse=0x3:0x113 / me=umh / subme=11 / psy=1 / psy_rd=1.00:0.05 / mixed_ref=1 / me_range=32 / chroma_me=1 / trellis=2 / 8x8dct=1 / cqm=0 / deadzone=21,11 / fast_pskip=0 / chroma_qp_offset=-3 / threads=6 / lookahead_threads=1 / sliced_threads=0 / nr=0 / decimate=0 / interlaced=0 / bluray_compat=0 / constrained_intra=0 / bframes=8 / b_pyramid=2 / b_adapt=2 / b_bias=0 / direct=3 / weightb=1 / open_gop=0 / weightp=2 / keyint=250 / keyint_min=23 / scenecut=40 / intra_refresh=0 / rc=2pass / mbtree=0 / bitrate=1740 / ratetol=1.0 / qcomp=0.60 / qpmin=0 / qpmax=69 / qpstep=4 / cplxblur=20.0 / qblur=0.5 / ip_ratio=1.40 / pb_ratio=1.25 / aq=1:1.00Language : EnglishEncoded date : UTC 2016-12-13 06:16:47Tagged date : UTC 2016-12-13 06:19:13Color range : LimitedColor primaries : BT.709Transfer characteristics : BT.709Matrix coefficients : BT.709

Audio #1ID : 2Format : AACFormat/Info : Advanced Audio CodecFormat profile : LCCodec ID : 40Duration : 1 h 56 minBit rate mode : VariableBit rate : 128 kb/sMaximum bit rate : 135 kb/sChannel(s) : 2 channelsChannel positions : Front: L RSampling rate : 48.0 kHzFrame rate : 46.875 FPS (1024 spf)Compression mode : LossyStream size : 106 MiB (3%)Title : [Dub] Pifagor / [Dub] PifagorLanguage : RussianDefault : YesAlternate group : 1Encoded date : UTC 2016-12-13 06:17:28Tagged date : UTC 2016-12-13 06:19:13

Audio #2ID : 3Format : AACFormat/Info : Advanced Audio CodecFormat profile : LCCodec ID : 40Duration : 1 h 56 minBit rate mode : VariableBit rate : 128 kb/sMaximum bit rate : 135 kb/sChannel(s) : 2 channelsChannel positions : Front: L RSampling rate : 48.0 kHzFrame rate : 46.875 FPS (1024 spf)Compression mode : LossyStream size : 106 MiB (3%)Title : [MVO] [FDV] / [MVO] [FDV]Language : RussianDefault : NoAlternate group : 1Encoded date : UTC 2016-12-13 06:17:35Tagged date : UTC 2016-12-13 06:19:13

Audio #3ID : 4Format : AACFormat/Info : Advanced Audio CodecFormat profile : LCCodec ID : 40Duration : 1 h 56 minBit rate mode : VariableBit rate : 128 kb/sMaximum bit rate : 135 kb/sChannel(s) : 2 channelsChannel positions : Front: L RSampling rate : 48.0 kHzFrame rate : 46.875 FPS (1024 spf)Compression mode : LossyStream size : 106 MiB (3%)Title : [MVO] OPT / [MVO] OPTLanguage : RussianDefault : NoAlternate group : 1Encoded date : UTC 2016-12-13 06:17:41Tagged date : UTC 2016-12-13 06:19:13

Audio #4ID : 5Format : AACFormat/Info : Advanced Audio CodecFormat profile : LCCodec ID : 40Duration : 1 h 56 minBit rate mode : VariableBit rate : 128 kb/sMaximum bit rate : 135 kb/sChannel(s) : 2 channelsChannel positions : Front: L RSampling rate : 48.0 kHzFrame rate : 46.875 FPS (1024 spf)Compression mode : LossyStream size : 106 MiB (3%)Title : [DVO] Kinomaniya [DDV] [Biz video]Language : RussianDefault : NoAlternate group : 1Encoded date : UTC 2016-12-13 06:17:47Tagged date : UTC 2016-12-13 06:19:13

Audio #5ID : 6Format : AACFormat/Info : Advanced Audio CodecFormat profile : LCCodec ID : 40Duration : 1 h 56 minBit rate mode : VariableBit rate : 128 kb/sMaximum bit rate : 135 kb/sChannel(s) : 2 channelsChannel positions : Front: L RSampling rate : 48.0 kHzFrame rate : 46.875 FPS (1024 spf)Compression mode : LossyStream size : 106 MiB (3%)Title : [DVO] Premier videoLanguage : RussianDefault : NoAlternate group : 1Encoded date : UTC 2016-12-13 06:17:52Tagged date : UTC 2016-12-13 06:19:13

Audio #6ID : 7Format : AACFormat/Info : Advanced Audio CodecFormat profile : LCCodec ID : 40Duration : 1 h 56 minBit rate mode : VariableBit rate : 128 kb/sMaximum bit rate : 135 kb/sChannel(s) : 2 channelsChannel positions : Front: L RSampling rate : 48.0 kHzFrame rate : 46.875 FPS (1024 spf)Compression mode : LossyStream size : 106 MiB (3%)Title : [DVO] Psevdo_dyblyazh / [DVO] Psevdo_dyblyazhLanguage : RussianDefault : NoAlternate group : 1Encoded date : UTC 2016-12-13 06:17:58Tagged date : UTC 2016-12-13 06:19:13

Audio #7ID : 8Format : AACFormat/Info : Advanced Audio CodecFormat profile : LCCodec ID : 40Duration : 1 h 56 minBit rate mode : VariableBit rate : 128 kb/sMaximum bit rate : 135 kb/sChannel(s) : 2 channelsChannel positions : Front: L RSampling rate : 48.0 kHzFrame rate : 46.875 FPS (1024 spf)Compression mode : LossyStream size : 106 MiB (3%)Title : [DVO] Karusel / [DVO] KaruselLanguage : RussianDefault : NoAlternate group : 1Encoded date : UTC 2016-12-13 06:18:04Tagged date : UTC 2016-12-13 06:19:13

Audio #8ID : 9Format : AACFormat/Info : Advanced Audio CodecFormat profile : LCCodec ID : 40Duration : 1 h 56 minBit rate mode : VariableBit rate : 128 kb/sMaximum bit rate : 135 kb/sChannel(s) : 2 channelsChannel positions : Front: L RSampling rate : 48.0 kHzFrame rate : 46.875 FPS (1024 spf)Compression mode : LossyStream size : 106 MiB (3%)Title : [DVO] [HTB=CTC] / [DVO] [HTB=CTC]Language : RussianDefault : NoAlternate group : 1Encoded date : UTC 2016-12-13 06:18:09Tagged date : UTC 2016-12-13 06:19:13

Audio #9ID : 10Format : AACFormat/Info : Advanced Audio CodecFormat profile : LCCodec ID : 40Duration : 1 h 56 minBit rate mode : VariableBit rate : 128 kb/sMaximum bit rate : 135 kb/sChannel(s) : 2 channelsChannel positions : Front: L RSampling rate : 48.0 kHzFrame rate : 46.875 FPS (1024 spf)Compression mode : LossyStream size : 106 MiB (3%)Title : [DVO] 1_1 / [DVO] 1_1Language : UkrainianDefault : NoAlternate group : 1Encoded date : UTC 2016-12-13 06:18:15Tagged date : UTC 2016-12-13 06:19:13

Audio #10ID : 11Format : AACFormat/Info : Advanced Audio CodecFormat profile : LCCodec ID : 40Duration : 1 h 56 minBit rate mode : VariableBit rate : 128 kb/sMaximum bit rate : 135 kb/sChannel(s) : 2 channelsChannel positions : Front: L RSampling rate : 48.0 kHzFrame rate : 46.875 FPS (1024 spf)Compression mode : LossyStream size : 106 MiB (3%)Title : [DVO] Hovui Kanal / [DVO] Hovui KanalLanguage : UkrainianDefault : NoAlternate group : 1Encoded date : UTC 2016-12-13 06:18:20Tagged date : UTC 2016-12-13 06:19:13

Audio #11ID : 12Format : AACFormat/Info : Advanced Audio CodecFormat profile : LCCodec ID : 40Duration : 1 h 56 minBit rate mode : VariableBit rate : 128 kb/sMaximum bit rate : 135 kb/sChannel(s) : 2 channelsChannel positions : Front: L RSampling rate : 48.0 kHzFrame rate : 46.875 FPS (1024 spf)Compression mode : LossyStream size : 106 MiB (3%)Title : [VO] Gavrilov _rannii_ / [VO] Gavrilov _rannii_Language : RussianDefault : NoAlternate group : 1Encoded date : UTC 2016-12-13 06:18:26Tagged date : UTC 2016-12-13 06:19:13

Audio #12ID : 13Format : AACFormat/Info : Advanced Audio CodecFormat profile : LCCodec ID : 40Duration : 1 h 56 minBit rate mode : VariableBit rate : 128 kb/sMaximum bit rate : 135 kb/sChannel(s) : 2 channelsChannel positions : Front: L RSampling rate : 48.0 kHzFrame rate : 46.875 FPS (1024 spf)Compression mode : LossyStream size : 106 MiB (3%)Title : [VO] Gavrilov _pozdnii_ / [VO] Gavrilov _pozdnii_Language : RussianDefault : NoAlternate group : 1Encoded date : UTC 2016-12-13 06:18:32Tagged date : UTC 2016-12-13 06:19:13

Audio #13ID : 14Format : AACFormat/Info : Advanced Audio CodecFormat profile : LCCodec ID : 40Duration : 1 h 56 minBit rate mode : VariableBit rate : 128 kb/sMaximum bit rate : 135 kb/sChannel(s) : 2 channelsChannel positions : Front: L RSampling rate : 48.0 kHzFrame rate : 46.875 FPS (1024 spf)Compression mode : LossyStream size : 106 MiB (3%)Title : [VO] Mikhalev / [VO] MikhalevLanguage : RussianDefault : NoAlternate group : 1Encoded date : UTC 2016-12-13 06:18:38Tagged date : UTC 2016-12-13 06:19:13

Audio #14ID : 15Format : AACFormat/Info : Advanced Audio CodecFormat profile : LCCodec ID : 40Duration : 1 h 56 minBit rate mode : VariableBit rate : 128 kb/sMaximum bit rate : 135 kb/sChannel(s) : 2 channelsChannel positions : Front: L RSampling rate : 48.0 kHzFrame rate : 46.875 FPS (1024 spf)Compression mode : LossyStream size : 106 MiB (3%)Title : [VO] Gorchakov / [VO] GorchakovLanguage : RussianDefault : NoAlternate group : 1Encoded date : UTC 2016-12-13 06:18:44Tagged date : UTC 2016-12-13 06:19:13

Audio #15ID : 16Format : AACFormat/Info : Advanced Audio CodecFormat profile : LCCodec ID : 40Duration : 1 h 56 minBit rate mode : VariableBit rate : 128 kb/sMaximum bit rate : 135 kb/sChannel(s) : 2 channelsChannel positions : Front: L RSampling rate : 48.0 kHzFrame rate : 46.875 FPS (1024 spf)Compression mode : LossyStream size : 106 MiB (3%)Title : [VO] Dubrovin / [VO] DubrovinLanguage : RussianDefault : NoAlternate group : 1Encoded date : UTC 2016-12-13 06:18:49Tagged date : UTC 2016-12-13 06:19:13

Audio #16ID : 17Format : AACFormat/Info : Advanced Audio CodecFormat profile : LCCodec ID : 40Duration : 1 h 56 minBit rate mode : VariableBit rate : 128 kb/sMaximum bit rate : 135 kb/sChannel(s) : 2 channelsChannel positions : Front: L RSampling rate : 48.0 kHzFrame rate : 46.875 FPS (1024 spf)Compression mode : LossyStream size : 106 MiB (3%)Title : [VO] Peregovorshik Gavrilova_rannego / [VO] Peregovorshik Gavrilova_rannegoLanguage : RussianDefault : NoAlternate group : 1Encoded date : UTC 2016-12-13 06:18:55Tagged date : UTC 2016-12-13 06:19:13

Audio #17ID : 18Format : AACFormat/Info : Advanced Audio CodecFormat profile : LCCodec ID : 40Duration : 1 h 56 minBit rate mode : VariableBit rate : 128 kb/sMaximum bit rate : 135 kb/sChannel(s) : 2 channelsChannel positions : Front: L RSampling rate : 48.0 kHzFrame rate : 46.875 FPS (1024 spf)Compression mode : LossyStream size : 106 MiB (3%)Title : [VO] Neizvestnui [Nepolnui] / [VO] Neizvestnui [Nepolnui]Language : RussianDefault : NoAlternate group : 1Encoded date : UTC 2016-12-13 06:19:01Tagged date : UTC 2016-12-13 06:19:13

Audio #18ID : 19Format : AACFormat/Info : Advanced Audio CodecFormat profile : LCCodec ID : 40Duration : 1 h 56 minBit rate mode : VariableBit rate : 128 kb/sMaximum bit rate : 135 kb/sChannel(s) : 2 channelsChannel positions : Front: L RSampling rate : 48.0 kHzFrame rate : 46.875 FPS (1024 spf)Compression mode : LossyStream size : 106 MiB (3%)Title : [Original] / [Original]Language : EnglishDefault : NoAlternate group : 1Encoded date : UTC 2016-12-13 06:19:07Tagged date : UTC 2016-12-13 06:19:13

Text #1ID : 20Format : Timed TextMuxing mode : sbtlCodec ID : tx3gDuration : 1 h 42 minBit rate mode : VariableBit rate : 1 b/sStream size : 905 Bytes (0%)Title : [FORCE] / [FORCE]Language : RussianDefault : YesForced : NoAlternate group : 2Encoded date : UTC 2016-12-13 06:19:13Tagged date : UTC 2016-12-13 06:19:13

Text #2ID : 21Format : Timed TextMuxing mode : sbtlCodec ID : tx3gDuration : 1 h 51 minBit rate mode : VariableBit rate : 99 b/sStream size : 80.8 KiB (0%)Title : [Movie] / [Movie]Language : RussianDefault : NoForced : NoAlternate group : 2Encoded date : UTC 2016-12-13 06:19:13Tagged date : UTC 2016-12-13 06:19:13

Text #3ID : 22Format : Timed TextMuxing mode : sbtlCodec ID : tx3gDuration : 1 h 52 minBit rate mode : VariableBit rate : 191 b/sStream size : 157 KiB (0%)Title : [Prod_Comm] / [Prod_Comm]Language : RussianDefault : NoForced : NoAlternate group : 2Encoded date : UTC 2016-12-13 06:19:13Tagged date : UTC 2016-12-13 06:19:13

Text #4ID : 23Format : Timed TextMuxing mode : sbtlCodec ID : tx3gDuration : 1 h 51 minBit rate mode : VariableBit rate : 206 b/sStream size : 169 KiB (0%)Title : [QA_Comm] / [QA_Comm]Language : RussianDefault : NoForced : NoAlternate group : 2Encoded date : UTC 2016-12-13 06:19:13Tagged date : UTC 2016-12-13 06:19:13

Text #5ID : 24Format : Timed TextMuxing mode : sbtlCodec ID : tx3gDuration : 1 h 51 minBit rate mode : VariableBit rate : 75 b/sStream size : 61.2 KiB (0%)Title : [Movie] / [Movie]Language : EnglishDefault : NoForced : NoAlternate group : 2Encoded date : UTC 2016-12-13 06:19:13Tagged date : UTC 2016-12-13 06:19:13

Text #6ID : 25Format : Timed TextMuxing mode : sbtlCodec ID : tx3gDuration : 1 h 52 minBit rate mode : VariableBit rate : 132 b/sStream size : 108 KiB (0%)Title : [Prod_Comm] / [Prod_Comm]Language : EnglishDefault : NoForced : NoAlternate group : 2Encoded date : UTC 2016-12-13 06:19:13Tagged date : UTC 2016-12-13 06:19:13

Text #7ID : 26Format : Timed TextMuxing mode : sbtlCodec ID : tx3gDuration : 1 h 51 minBit rate mode : VariableBit rate : 112 b/sStream size : 91.3 KiB (0%)Title : [QA_Comm] / [QA_Comm]Language : EnglishDefault : NoForced : NoAlternate group : 2Encoded date : UTC 2016-12-13 06:19:13Tagged date : UTC 2016-12-13 06:19:13
<span class="post-font-serif1">Назад в будущее 2 / Back to the Future Part II</span>
<span class="post-font-serif1">«Все это о времени»</span>

<span class="post-font-serif1">Год выпуска: 1989
Страна: США
Жанр: фантастика, боевик, комедия
Продолжительность: 01:47:59
Перевод №1: русский Профессиональный (полное дублирование) Дубляж с лицензии (Пифагор)
Перевод №2: русский Профессиональный (трёхголосый, закадровый) [FDV]
Перевод №3: русский Профессиональный (многоголосый, закадровый) [ОРТ]
Перевод №4: русский Профессиональный (двухголосый, закадровый) П.Гланц и Е.Лютая
Перевод №5: русский Профессиональный (двухголосый, закадровый) Премьер-видео
Перевод №6: русский Профессиональный (двухголосый, закадровый) Киномания [DDV] [Biz video]
Перевод №7: русский Профессиональный (двухголосый, закадровый) Карусель
Перевод №8: русский Профессиональный (двухголосый, закадровый) (СТС) (НТВ)
Перевод №9: украинский Профессиональный (двухголосый, закадровый) Телеканал 1+1
Перевод №10: украинский Профессиональный (двухголосый, закадровый) Телеканал Новый канал
Перевод №11: украинский Профессиональный (двухголосый, закадровый) Телеканал ICTV
Перевод №12: русский Авторский (одноголосый, закадровый) Гаврилов Андрей (ранний)
Перевод №13: русский Авторский (одноголосый, закадровый) Гаврилов Андрей (поздний)
Перевод №14: русский Авторский (одноголосый, закадровый) Михалёв Алексей
Перевод №15: русский Авторский (одноголосый, закадровый) Павел Санаев
Перевод №16: русский Авторский (одноголосый, закадровый) "Петербуржец"
Перевод №17: русский Авторский (одноголосый, закадровый) Юрий Живов
Перевод №18: русский Авторский (одноголосый, закадровый) Василий Горчаков
Перевод №19: русский Авторский (одноголосый, закадровый) Владимир Дубровин
Перевод №20: русский Авторский (одноголосый, закадровый) Переговорщик Санаева
Оригинальная дорожка: Есть
Cубтитры: русские, английские</span>
<span class="post-font-serif1">Режиссер: Роберт Земекис / Robert Zemeckis</span>
<span class="post-font-serif1">В ролях: Майкл Дж. Фокс, Кристофер Ллойд, Лиа Томпсон, Томас Ф. Уилсон, Элизабет Шу, Джеймс Толкан, Джеффри Вайсман, Кэйси Семашко, Билли Зейн, Дж.Дж. Коэн и другие .</span>
<span class="post-font-serif1">Описание: Продолжение фантастической истории о приключениях американского подростка во времени. На этот раз с помощью модернизированной Доком машины времени Марти из 80-х попадает в будущее.

Дети Марти в беде, и их надо выручать. Приходится повозиться со злодеем…</span>
<span class="post-font-serif1">Релиз группы </span>
<span class="post-font-serif1">Качество: BDRip / <a href="viewtopic.php?t=3228708" class="postLink">Blu-ray 1080p [25th Anniversary Edition]</a> / звуковые дорожки <a href="viewtopic.php?t=3775520" class="postLink">отсюда</a>
Формат: MP4
Видео кодек: H.264
Аудио кодек: AAC
Видео: 960x520 AR:1.85 1453 kbps 23.976 fps
Аудио №1: [Russian] 2ch 48 kHz 128 kbps - [Dub] Профессиональный (полное дублирование) Дубляж с лицензии (Пифагор)
Аудио №2: [Russian] 2ch 48 kHz 128 kbps - [MVO] Профессиональный (трёхголосый, закадровый) [FDV]
Аудио №3: [Russian] 2ch 48 kHz 128 kbps - [MVO] Профессиональный (многоголосый, закадровый) [ОРТ]
Аудио №4: [Russian] 2ch 48 kHz 128 kbps - [DVO] Профессиональный (двухголосый, закадровый) П.Гланц и Е.Лютая
Аудио №5: [Russian] 2ch 48 kHz 128 kbps - [DVO] Профессиональный (двухголосый, закадровый) Премьер-видео
Аудио №6: [Russian] 2ch 48 kHz 128 kbps - [DVO] Профессиональный (двухголосый, закадровый) Киномания [DDV] [Biz video]
Аудио №7: [Russian] 2ch 48 kHz 128 kbps - [DVO] Профессиональный (двухголосый, закадровый) Карусель
Аудио №8: [Russian] 2ch 48 kHz 128 kbps - [DVO] Профессиональный (двухголосый, закадровый) (СТС) (НТВ)
Аудио №9: [Ukrainian] 2ch 48 kHz 128 kbps - [DVO] Профессиональный (двухголосый, закадровый) Телеканал 1+1
Аудио №10: [Ukrainian] 2ch 48 kHz 128 kbps - [DVO] Профессиональный (двухголосый, закадровый) Телеканал Новый канал
Аудио №11: [Ukrainian] 2ch 48 kHz 128 kbps - [DVO] Профессиональный (двухголосый, закадровый) Телеканал ICTV
Аудио №12: [Russian] 2ch 48 kHz 128 kbps - [VO] Авторский (одноголосый, закадровый) Гаврилов Андрей (ранний)
Аудио №13: [Russian] 2ch 48 kHz 128 kbps - [VO] Авторский (одноголосый, закадровый) Гаврилов Андрей (поздний)
Аудио №14: [Russian] 2ch 48 kHz 128 kbps - [VO] Авторский (одноголосый, закадровый) Михалёв Алексей
Аудио №15: [Russian] 2ch 48 kHz 128 kbps - [VO] Авторский (одноголосый, закадровый) Павел Санаев
Аудио №16: [Russian] 2ch 48 kHz 128 kbps - [VO] Авторский (одноголосый, закадровый) "Петербуржец"
Аудио №17: [Russian] 2ch 48 kHz 128 kbps - [VO] Авторский (одноголосый, закадровый) Юрий Живов
Аудио №18: [Russian] 2ch 48 kHz 128 kbps - [VO] Авторский (одноголосый, закадровый) Василий Горчаков
Аудио №19: [Russian] 2ch 48 kHz 128 kbps - [VO] Авторский (одноголосый, закадровый) Владимир Дубровин
Аудио №20: [Russian] 2ch 48 kHz 128 kbps - [VO] Авторский (одноголосый, закадровый) Переговорщик Санаева
Аудио №21: [English] 2ch 48 kHz 128 kbps - Оригинал (английский)</span>
avs [info]: 960x520p 1:1 @ 2997/125 fps (cfr)
x264 [info]: using SAR=1/1
x264 [info]: using cpu capabilities: MMX2 SSE2Fast SSSE3 SSE4.2 AVX FMA3 AVX2 LZCNT BMI2
x264 [info]: profile High, level 4.1

x264 [info]: frame I:1194 Avg QP:19.38 size: 49615
x264 [info]: frame P:37673 Avg QP:22.94 size: 14791
x264 [info]: frame B:116481 Avg QP:25.16 size: 4806
x264 [info]: consecutive B-frames: 2.6% 4.4% 10.7% 29.7% 18.7% 28.2% 3.1% 1.5% 0.5% 0.5%
x264 [info]: mb I I16..4: 7.1% 70.6% 22.3%
x264 [info]: mb P I16..4: 0.9% 8.4% 1.7% P16..4: 36.7% 35.4% 8.0% 0.0% 0.0% skip: 8.8%
x264 [info]: mb B I16..4: 0.1% 0.9% 0.2% B16..8: 36.5% 15.2% 2.1% direct: 3.0% skip:42.0% L0:42.7% L1:47.8% BI: 9.5%
x264 [info]: 8x8 transform intra:75.6% inter:62.4%
x264 [info]: direct mvs spatial:98.4% temporal:1.6%
x264 [info]: coded y,uvDC,uvAC intra: 83.2% 69.8% 33.3% inter: 15.0% 10.0% 1.9%
x264 [info]: i16 v,h,dc,p: 18% 18% 4% 59%
x264 [info]: i8 v,h,dc,ddl,ddr,vr,hd,vl,hu: 9% 6% 3% 11% 16% 15% 15% 12% 13%
x264 [info]: i4 v,h,dc,ddl,ddr,vr,hd,vl,hu: 14% 7% 4% 9% 14% 14% 13% 11% 12%
x264 [info]: i8c dc,h,v,p: 30% 30% 21% 19%
x264 [info]: Weighted P-Frames: Y:10.4% UV:5.8%
x264 [info]: ref P L0: 53.3% 11.0% 16.6% 5.7% 4.6% 3.5% 3.1% 1.9% 0.3% 0.0%
x264 [info]: ref B L0: 82.7% 8.4% 4.1% 1.9% 1.5% 1.0% 0.4%
x264 [info]: ref B L1: 95.9% 4.1%
x264 [info]: kb/s:1452.36

encoded 155348 frames, 15.80 fps, 1452.36 kb/s
GeneralComplete name : D:\Torrents\Back to the Future Part I, II, III.Trilogy.1985-1990.BDRip.x264.960x\Back to the Future Part II.1989.BDRip.x264.960x.rip by Frost O.S.mp4Format : MPEG-4Format profile : Base MediaCodec ID : isom (isom/avc1/iso2)File size : 3.18 GiBDuration : 1 h 48 minOverall bit rate mode : VariableOverall bit rate : 4 217 kb/sMovie name : Back to the Future Part II 1989 BDRip x264 960x rip by Frost O SGenre : FantasyContentType : Short FilmEncoded date : UTC 2016-12-08 13:12:58Tagged date : UTC 2016-12-08 14:38:20Writing application : MkvToMp4 version: 0.224 (x64)Cover : YesComment : rip by Frost O.SLongDescription : Продолжение фантастической истории о приключениях американского подростка во времени. На этот раз с помощью модернизированной Доком машины времени Марти из 80-х попадает в будущее. / Дети Марти в беде, и их надо выручать. Приходится повозиться со злодеем…

VideoID : 1Format : AVCFormat/Info : Advanced Video CodecFormat profile : [email protected] settings, CABAC : YesFormat settings, ReFrames : 8 framesCodec ID : avc1Codec ID/Info : Advanced Video CodingDuration : 1 h 47 minBit rate : 1 453 kb/sMaximum bit rate : 5 444 kb/sWidth : 960 pixelsHeight : 520 pixelsDisplay aspect ratio : 1.85:1Frame rate mode : ConstantFrame rate : 23.976 (24000/1001) FPSOriginal frame rate : 23.976 (23976/1000) FPSColor space : YUVChroma subsampling : 4:2:0Bit depth : 8 bitsScan type : ProgressiveBits/(Pixel*Frame) : 0.121Stream size : 1.10 GiB (34%)Writing library : x264 core 148 r2705 3f5ed56Encoding settings : cabac=1 / ref=8 / deblock=1:-1:-1 / analyse=0x3:0x113 / me=umh / subme=11 / psy=1 / psy_rd=1.00:0.05 / mixed_ref=1 / me_range=32 / chroma_me=1 / trellis=2 / 8x8dct=1 / cqm=0 / deadzone=21,11 / fast_pskip=0 / chroma_qp_offset=-3 / threads=6 / lookahead_threads=1 / sliced_threads=0 / nr=0 / decimate=0 / interlaced=0 / bluray_compat=0 / constrained_intra=0 / bframes=9 / b_pyramid=2 / b_adapt=2 / b_bias=0 / direct=3 / weightb=1 / open_gop=0 / weightp=2 / keyint=250 / keyint_min=23 / scenecut=40 / intra_refresh=0 / rc=2pass / mbtree=0 / bitrate=1453 / ratetol=1.0 / qcomp=0.60 / qpmin=0 / qpmax=69 / qpstep=4 / cplxblur=20.0 / qblur=0.5 / ip_ratio=1.40 / pb_ratio=1.30 / aq=1:0.70Language : EnglishEncoded date : UTC 2016-12-08 13:12:58Tagged date : UTC 2016-12-08 13:16:12Color range : LimitedColor primaries : BT.709Transfer characteristics : BT.709Matrix coefficients : BT.709

Audio #1ID : 2Format : AACFormat/Info : Advanced Audio CodecFormat profile : LCCodec ID : 40Duration : 1 h 47 minBit rate mode : VariableBit rate : 128 kb/sMaximum bit rate : 135 kb/sChannel(s) : 2 channelsChannel positions : Front: L RSampling rate : 48.0 kHzFrame rate : 46.875 FPS (1024 spf)Compression mode : LossyStream size : 98.9 MiB (3%)Title : [Dub] Pifagor / [Dub] PifagorLanguage : RussianDefault : YesAlternate group : 1Encoded date : UTC 2016-12-08 13:13:42Tagged date : UTC 2016-12-08 13:16:12

Audio #2ID : 3Format : AACFormat/Info : Advanced Audio CodecFormat profile : LCCodec ID : 40Duration : 1 h 47 minBit rate mode : VariableBit rate : 128 kb/sMaximum bit rate : 135 kb/sChannel(s) : 2 channelsChannel positions : Front: L RSampling rate : 48.0 kHzFrame rate : 46.875 FPS (1024 spf)Compression mode : LossyStream size : 98.9 MiB (3%)Title : [MVO] [FDV] / [MVO] [FDV]Language : RussianDefault : NoAlternate group : 1Encoded date : UTC 2016-12-08 13:13:52Tagged date : UTC 2016-12-08 13:16:12

Audio #3ID : 4Format : AACFormat/Info : Advanced Audio CodecFormat profile : LCCodec ID : 40Duration : 1 h 47 minBit rate mode : VariableBit rate : 128 kb/sMaximum bit rate : 135 kb/sChannel(s) : 2 channelsChannel positions : Front: L RSampling rate : 48.0 kHzFrame rate : 46.875 FPS (1024 spf)Compression mode : LossyStream size : 98.9 MiB (3%)Title : [MVO] OPT / [MVO] OPTLanguage : RussianDefault : NoAlternate group : 1Encoded date : UTC 2016-12-08 13:14:00Tagged date : UTC 2016-12-08 13:16:12

Audio #4ID : 5Format : AACFormat/Info : Advanced Audio CodecFormat profile : LCCodec ID : 40Duration : 1 h 48 minBit rate mode : VariableBit rate : 128 kb/sMaximum bit rate : 135 kb/sChannel(s) : 2 channelsChannel positions : Front: L RSampling rate : 48.0 kHzFrame rate : 46.875 FPS (1024 spf)Compression mode : LossyStream size : 99.0 MiB (3%)Title : [DVO] Glanz and Lutaya / [DVO] Glanz and LutayaLanguage : RussianDefault : NoAlternate group : 1Encoded date : UTC 2016-12-08 13:14:07Tagged date : UTC 2016-12-08 13:16:12

Audio #5ID : 6Format : AACFormat/Info : Advanced Audio CodecFormat profile : LCCodec ID : 40Duration : 1 h 47 minBit rate mode : VariableBit rate : 128 kb/sMaximum bit rate : 135 kb/sChannel(s) : 2 channelsChannel positions : Front: L RSampling rate : 48.0 kHzFrame rate : 46.875 FPS (1024 spf)Compression mode : LossyStream size : 98.9 MiB (3%)Title : [DVO] Premier_videoLanguage : RussianDefault : NoAlternate group : 1Encoded date : UTC 2016-12-08 13:14:14Tagged date : UTC 2016-12-08 13:16:12

Audio #6ID : 7Format : AACFormat/Info : Advanced Audio CodecFormat profile : LCCodec ID : 40Duration : 1 h 47 minBit rate mode : VariableBit rate : 128 kb/sMaximum bit rate : 134 kb/sChannel(s) : 2 channelsChannel positions : Front: L RSampling rate : 48.0 kHzFrame rate : 46.875 FPS (1024 spf)Compression mode : LossyStream size : 98.9 MiB (3%)Title : [DVO] Kinomaniya [DDV] [Biz video]Language : RussianDefault : NoAlternate group : 1Encoded date : UTC 2016-12-08 13:14:21Tagged date : UTC 2016-12-08 13:16:12

Audio #7ID : 8Format : AACFormat/Info : Advanced Audio CodecFormat profile : LCCodec ID : 40Duration : 1 h 47 minBit rate mode : VariableBit rate : 128 kb/sMaximum bit rate : 135 kb/sChannel(s) : 2 channelsChannel positions : Front: L RSampling rate : 48.0 kHzFrame rate : 46.875 FPS (1024 spf)Compression mode : LossyStream size : 98.9 MiB (3%)Title : [DVO] Karusel / [DVO] KaruselLanguage : RussianDefault : NoAlternate group : 1Encoded date : UTC 2016-12-08 13:14:29Tagged date : UTC 2016-12-08 13:16:12

Audio #8ID : 9Format : AACFormat/Info : Advanced Audio CodecFormat profile : LCCodec ID : 40Duration : 1 h 48 minBit rate mode : VariableBit rate : 128 kb/sMaximum bit rate : 135 kb/sChannel(s) : 2 channelsChannel positions : Front: L RSampling rate : 48.0 kHzFrame rate : 46.875 FPS (1024 spf)Compression mode : LossyStream size : 99.0 MiB (3%)Title : [DVO] [CTC=HTB] / [DVO] [CTC=HTB]Language : RussianDefault : NoAlternate group : 1Encoded date : UTC 2016-12-08 13:14:35Tagged date : UTC 2016-12-08 13:16:12

Audio #9ID : 10Format : AACFormat/Info : Advanced Audio CodecFormat profile : LCCodec ID : 40Duration : 1 h 47 minBit rate mode : VariableBit rate : 128 kb/sMaximum bit rate : 133 kb/sChannel(s) : 2 channelsChannel positions : Front: L RSampling rate : 48.0 kHzFrame rate : 46.875 FPS (1024 spf)Compression mode : LossyStream size : 98.9 MiB (3%)Title : [DVO] 1_1 / [DVO] 1_1Language : UkrainianDefault : NoAlternate group : 1Encoded date : UTC 2016-12-08 13:14:43Tagged date : UTC 2016-12-08 13:16:12

Audio #10ID : 11Format : AACFormat/Info : Advanced Audio CodecFormat profile : LCCodec ID : 40Duration : 1 h 47 minBit rate mode : VariableBit rate : 128 kb/sMaximum bit rate : 133 kb/sChannel(s) : 2 channelsChannel positions : Front: L RSampling rate : 48.0 kHzFrame rate : 46.875 FPS (1024 spf)Compression mode : LossyStream size : 98.9 MiB (3%)Title : [DVO] Novui Kanal / [DVO] Novui KanalLanguage : UkrainianDefault : NoAlternate group : 1Encoded date : UTC 2016-12-08 13:14:50Tagged date : UTC 2016-12-08 13:16:12

Audio #11ID : 12Format : AACFormat/Info : Advanced Audio CodecFormat profile : LCCodec ID : 40Duration : 1 h 47 minBit rate mode : VariableBit rate : 128 kb/sMaximum bit rate : 132 kb/sChannel(s) : 2 channelsChannel positions : Front: L RSampling rate : 48.0 kHzFrame rate : 46.875 FPS (1024 spf)Compression mode : LossyStream size : 98.9 MiB (3%)Title : [DVO] ICTV / [DVO] ICTVLanguage : UkrainianDefault : NoAlternate group : 1Encoded date : UTC 2016-12-08 13:14:58Tagged date : UTC 2016-12-08 13:16:12

Audio #12ID : 13Format : AACFormat/Info : Advanced Audio CodecFormat profile : LCCodec ID : 40Duration : 1 h 48 minBit rate mode : VariableBit rate : 128 kb/sMaximum bit rate : 135 kb/sChannel(s) : 2 channelsChannel positions : Front: L RSampling rate : 48.0 kHzFrame rate : 46.875 FPS (1024 spf)Compression mode : LossyStream size : 99.0 MiB (3%)Title : [VO] Gavrilov _rannii_ / [VO] Gavrilov _rannii_Language : RussianDefault : NoAlternate group : 1Encoded date : UTC 2016-12-08 13:15:05Tagged date : UTC 2016-12-08 13:16:12

Audio #13ID : 14Format : AACFormat/Info : Advanced Audio CodecFormat profile : LCCodec ID : 40Duration : 1 h 48 minBit rate mode : VariableBit rate : 128 kb/sMaximum bit rate : 135 kb/sChannel(s) : 2 channelsChannel positions : Front: L RSampling rate : 48.0 kHzFrame rate : 46.875 FPS (1024 spf)Compression mode : LossyStream size : 99.0 MiB (3%)Title : [VO] Gavrilov _pozdnii_ / [VO] Gavrilov _pozdnii_Language : RussianDefault : NoAlternate group : 1Encoded date : UTC 2016-12-08 13:15:13Tagged date : UTC 2016-12-08 13:16:12

Audio #14ID : 15Format : AACFormat/Info : Advanced Audio CodecFormat profile : LCCodec ID : 40Duration : 1 h 48 minBit rate mode : VariableBit rate : 128 kb/sMaximum bit rate : 135 kb/sChannel(s) : 2 channelsChannel positions : Front: L RSampling rate : 48.0 kHzFrame rate : 46.875 FPS (1024 spf)Compression mode : LossyStream size : 99.0 MiB (3%)Title : [VO] Mikhalev / [VO] MikhalevLanguage : RussianDefault : NoAlternate group : 1Encoded date : UTC 2016-12-08 13:15:21Tagged date : UTC 2016-12-08 13:16:12

Audio #15ID : 16Format : AACFormat/Info : Advanced Audio CodecFormat profile : LCCodec ID : 40Duration : 1 h 48 minBit rate mode : VariableBit rate : 128 kb/sMaximum bit rate : 135 kb/sChannel(s) : 2 channelsChannel positions : Front: L RSampling rate : 48.0 kHzFrame rate : 46.875 FPS (1024 spf)Compression mode : LossyStream size : 99.0 MiB (3%)Title : [VO] Sanaev / [VO] SanaevLanguage : RussianDefault : NoAlternate group : 1Encoded date : UTC 2016-12-08 13:15:29Tagged date : UTC 2016-12-08 13:16:12

Audio #16ID : 17Format : AACFormat/Info : Advanced Audio CodecFormat profile : LCCodec ID : 40Duration : 1 h 48 minBit rate mode : VariableBit rate : 128 kb/sMaximum bit rate : 135 kb/sChannel(s) : 2 channelsChannel positions : Front: L RSampling rate : 48.0 kHzFrame rate : 46.875 FPS (1024 spf)Compression mode : LossyStream size : 99.0 MiB (3%)Title : [VO] Peterburzhec / [VO] PeterburzhecLanguage : RussianDefault : NoAlternate group : 1Encoded date : UTC 2016-12-08 13:15:35Tagged date : UTC 2016-12-08 13:16:12

Audio #17ID : 18Format : AACFormat/Info : Advanced Audio CodecFormat profile : LCCodec ID : 40Duration : 1 h 48 minBit rate mode : VariableBit rate : 128 kb/sMaximum bit rate : 135 kb/sChannel(s) : 2 channelsChannel positions : Front: L RSampling rate : 48.0 kHzFrame rate : 46.875 FPS (1024 spf)Compression mode : LossyStream size : 99.0 MiB (3%)Title : [VO] Zhuvov / [VO] ZhuvovLanguage : RussianDefault : NoAlternate group : 1Encoded date : UTC 2016-12-08 13:15:42Tagged date : UTC 2016-12-08 13:16:12

Audio #18ID : 19Format : AACFormat/Info : Advanced Audio CodecFormat profile : LCCodec ID : 40Duration : 1 h 48 minBit rate mode : VariableBit rate : 128 kb/sMaximum bit rate : 135 kb/sChannel(s) : 2 channelsChannel positions : Front: L RSampling rate : 48.0 kHzFrame rate : 46.875 FPS (1024 spf)Compression mode : LossyStream size : 99.0 MiB (3%)Title : [VO] Gorchakov / [VO] GorchakovLanguage : RussianDefault : NoAlternate group : 1Encoded date : UTC 2016-12-08 13:15:47Tagged date : UTC 2016-12-08 13:16:12

Audio #19ID : 20Format : AACFormat/Info : Advanced Audio CodecFormat profile : LCCodec ID : 40Duration : 1 h 48 minBit rate mode : VariableBit rate : 128 kb/sMaximum bit rate : 135 kb/sChannel(s) : 2 channelsChannel positions : Front: L RSampling rate : 48.0 kHzFrame rate : 46.875 FPS (1024 spf)Compression mode : LossyStream size : 99.0 MiB (3%)Title : [VO] Dubrovin / [VO] DubrovinLanguage : RussianDefault : NoAlternate group : 1Encoded date : UTC 2016-12-08 13:15:53Tagged date : UTC 2016-12-08 13:16:12

Audio #20ID : 21Format : AACFormat/Info : Advanced Audio CodecFormat profile : LCCodec ID : 40Duration : 1 h 48 minBit rate mode : VariableBit rate : 128 kb/sMaximum bit rate : 135 kb/sChannel(s) : 2 channelsChannel positions : Front: L RSampling rate : 48.0 kHzFrame rate : 46.875 FPS (1024 spf)Compression mode : LossyStream size : 99.0 MiB (3%)Title : [VO] Peregovorshik Sanaeva / [VO] Peregovorshik SanaevaLanguage : RussianDefault : NoAlternate group : 1Encoded date : UTC 2016-12-08 13:15:59Tagged date : UTC 2016-12-08 13:16:12

Audio #21ID : 22Format : AACFormat/Info : Advanced Audio CodecFormat profile : LCCodec ID : 40Duration : 1 h 47 minBit rate mode : VariableBit rate : 128 kb/sMaximum bit rate : 134 kb/sChannel(s) : 2 channelsChannel positions : Front: L RSampling rate : 48.0 kHzFrame rate : 46.875 FPS (1024 spf)Compression mode : LossyStream size : 98.9 MiB (3%)Title : [Original] / [Original]Language : EnglishDefault : NoAlternate group : 1Encoded date : UTC 2016-12-08 13:16:05Tagged date : UTC 2016-12-08 13:16:12

Text #1ID : 23Format : Timed TextMuxing mode : sbtlCodec ID : tx3gDuration : 1 h 43 minBit rate mode : VariableBit rate : 98 b/sStream size : 74.1 KiB (0%)Title : [Full] / [Full]Language : RussianDefault : YesForced : NoAlternate group : 2Encoded date : UTC 2016-12-08 13:16:12Tagged date : UTC 2016-12-08 13:16:12

Text #2ID : 24Format : Timed TextMuxing mode : sbtlCodec ID : tx3gDuration : 1 h 42 minBit rate mode : VariableBit rate : 74 b/sStream size : 55.5 KiB (0%)Title : [Original] / [Original]Language : EnglishDefault : NoForced : NoAlternate group : 2Encoded date : UTC 2016-12-08 13:16:12Tagged date : UTC 2016-12-08 13:16:12
<span class="post-font-serif1">Назад в будущее 3 / Back to the Future Part III</span>
<span class="post-font-serif1">«Лучшее путешествие они оставили напоследок... Но в этот раз они зашли слишком далеко...»</span>

<span class="post-font-serif1">Год выпуска: 1990
Страна: США
Жанр: фантастика, боевик, комедия, приключения, семейный, вестерн
Продолжительность: 01:58:17
Перевод №1: русский Профессиональный (полное дублирование) Дубляж с лицензии (Пифагор)
Перевод №2: русский Профессиональный (трёхголосый, закадровый) [FDV]
Перевод №3: русский Профессиональный (многоголосый, закадровый) [ОРТ]
Перевод №4: русский Профессиональный (двухголосый, закадровый) П.Гланц и Е.Лютая
Перевод №5: русский Профессиональный (двухголосый, закадровый) Премьер-видео
Перевод №6: русский Профессиональный (двухголосый, закадровый) Киномания [DDV] [Biz video]
Перевод №7: русский Профессиональный (двухголосый, закадровый) (СТС) (НТВ)
Перевод №8: украинский Профессиональный (двухголосый, закадровый) Телеканал 1+1
Перевод №9: украинский Профессиональный (двухголосый, закадровый) Телеканал Новый канал
Перевод №10: русский Авторский (одноголосый, закадровый) Гаврилов Андрей
Перевод №11: русский Авторский (одноголосый, закадровый) Михалёв Алексей
Перевод №12: русский Авторский (одноголосый, закадровый) Павел Санаев
Перевод №13: русский Авторский (одноголосый, закадровый) Василий Горчаков
Перевод №14: русский Авторский (одноголосый, закадровый) студия МЕГА
Оригинальная дорожка: Есть
Cубтитры: русские, английские</span>
<span class="post-font-serif1">Режиссеры: Роберт Земекис / Robert Zemeckis</span>
<span class="post-font-serif1">В ролях: Майкл Дж. Фокс, Кристофер Ллойд, Мэри Стинберген, Томас Ф. Уилсон, Лиа Томпсон, Элизабет Шу, Джеймс Толкан, Мэтт Кларк, Даб Тейлор, Гарри Кэри мл. и другие .</span>
<span class="post-font-serif1">Описание: Из газет 1985 года Марти узнает, что доктор Браун погиб еще сто лет назад. Несмотря на просьбы Дока не навещать его в XIX веке, Марти вновь хочет вмешаться в ход событий и на машине времени уносится в 1885 год, навстречу Дикому Западу. Это путешествие, как и все прежние, не обходится без опасных приключений, но смелый Марти, рискуя жизнью, предотвращает трагедию в жизни Эммета Брауна. Тот, в свою очередь, без памяти влюбляется в очаровательную незнакомку, которую спасает от гибели, и поездка домой - в будущее - теряет для него всякий смысл...</span>
<span class="post-font-serif1">Релиз группы </span>
<span class="post-font-serif1">Качество: BDRip / <a href="viewtopic.php?t=3228708" class="postLink">Blu-ray 1080p [25th Anniversary Edition]</a> / звуковые дорожки <a href="viewtopic.php?t=3779515" class="postLink">отсюда</a>
Формат: MP4
Видео кодек: H.264
Аудио кодек: AAC
Видео: 960x520 AR:1.85 1445 kbps 23.976 fps
Аудио №1: [Russian] 2ch 48 kHz 128 kbps - [Dub] Профессиональный (полное дублирование) Дубляж с лицензии (Пифагор)
Аудио №2: [Russian] 2ch 48 kHz 128 kbps - [MVO] Профессиональный (трёхголосый, закадровый) [FDV]
Аудио №3: [Russian] 2ch 48 kHz 128 kbps - [MVO] Профессиональный (многоголосый, закадровый) [ОРТ]
Аудио №4: [Russian] 2ch 48 kHz 128 kbps - [DVO] Профессиональный (двухголосый, закадровый) П.Гланц и Е.Лютая
Аудио №5: [Russian] 2ch 48 kHz 128 kbps - [DVO] Профессиональный (двухголосый, закадровый) Премьер-видео
Аудио №6: [Russian] 2ch 48 kHz 128 kbps - [DVO] Профессиональный (двухголосый, закадровый) Киномания [DDV] [Biz video]
Аудио №7: [Russian] 2ch 48 kHz 128 kbps - [DVO] Профессиональный (двухголосый, закадровый) (СТС) (НТВ)
Аудио №8: [Ukrainian] 2ch 48 kHz 128 kbps - [DVO] Профессиональный (двухголосый, закадровый) Телеканал 1+1
Аудио №9: [Ukrainian] 2ch 48 kHz 128 kbps - [DVO] Профессиональный (двухголосый, закадровый) Телеканал Новый канал
Аудио №10: [Russian] 2ch 48 kHz 128 kbps - [VO] Авторский (одноголосый, закадровый) Гаврилов Андрей
Аудио №11: [Russian] 2ch 48 kHz 128 kbps - [VO] Авторский (одноголосый, закадровый) Михалёв Алексей
Аудио №12: [Russian] 2ch 48 kHz 128 kbps - [VO] Авторский (одноголосый, закадровый) Павел Санаев
Аудио №13: [Russian] 2ch 48 kHz 128 kbps - [VO] Авторский (одноголосый, закадровый) Василий Горчаков
Аудио №14: [Russian] 2ch 48 kHz 128 kbps - [VO] Авторский (одноголосый, закадровый) студия МЕГА
Аудио №15: [English] 2ch 48 kHz 128 kbps - Оригинал (английский)</span>
avs [info]: 960x520p 1:1 @ 2997/125 fps (cfr)
x264 [info]: using SAR=1/1
x264 [info]: using cpu capabilities: MMX2 SSE2Fast SSSE3 SSE4.2 AVX FMA3 AVX2 LZCNT BMI2
x264 [info]: profile High, level 4.1

x264 [info]: frame I:1357 Avg QP:19.93 size: 60257
x264 [info]: frame P:40761 Avg QP:23.67 size: 15224
x264 [info]: frame B:128055 Avg QP:25.50 size: 4526
x264 [info]: consecutive B-frames: 2.8% 3.9% 11.1% 25.4% 21.5% 28.2% 4.0% 1.8% 1.4%
x264 [info]: mb I I16..4: 5.7% 72.0% 22.3%
x264 [info]: mb P I16..4: 0.8% 7.3% 1.4% P16..4: 36.5% 35.7% 9.7% 0.0% 0.0% skip: 8.6%
x264 [info]: mb B I16..4: 0.1% 0.7% 0.1% B16..8: 35.2% 15.2% 2.3% direct: 3.0% skip:43.5% L0:41.6% L1:46.9% BI:11.6%
x264 [info]: 8x8 transform intra:75.3% inter:62.0%
x264 [info]: direct mvs spatial:97.7% temporal:2.3%
x264 [info]: coded y,uvDC,uvAC intra: 82.7% 75.9% 41.0% inter: 15.0% 10.6% 2.5%
x264 [info]: i16 v,h,dc,p: 26% 17% 5% 53%
x264 [info]: i8 v,h,dc,ddl,ddr,vr,hd,vl,hu: 9% 6% 4% 11% 16% 14% 15% 12% 13%
x264 [info]: i4 v,h,dc,ddl,ddr,vr,hd,vl,hu: 14% 7% 5% 9% 15% 14% 13% 11% 12%
x264 [info]: i8c dc,h,v,p: 34% 27% 20% 19%
x264 [info]: Weighted P-Frames: Y:9.9% UV:5.0%
x264 [info]: ref P L0: 53.6% 13.4% 15.6% 5.2% 4.2% 3.1% 2.9% 1.7% 0.2% 0.0%
x264 [info]: ref B L0: 81.5% 8.6% 4.4% 2.2% 1.7% 1.1% 0.4%
x264 [info]: ref B L1: 95.7% 4.3%
x264 [info]: kb/s:1444.90

encoded 170173 frames, 15.13 fps, 1444.90 kb/s
GeneralComplete name : D:\Torrents\Back to the Future Part I, II, III.Trilogy.1985-1990.BDRip.x264.960x\Back to the Future Part III.1990.BDRip.x264.960x.rip by Frost O.S.mp4Format : MPEG-4Format profile : Base MediaCodec ID : isom (isom/avc1/iso2)File size : 2.83 GiBDuration : 1 h 58 minOverall bit rate mode : VariableOverall bit rate : 3 423 kb/sMovie name : Back to the Future Part III 1990 BDRip x264 960x rip by Frost O SGenre : FantasyContentType : Short FilmEncoded date : UTC 2016-12-08 15:02:08Tagged date : UTC 2016-12-08 15:40:17Writing application : MkvToMp4 version: 0.224 (x64)Cover : YesComment : rip by Frost O.SLongDescription : Из газет 1985 года Марти узнает, что доктор Браун погиб еще сто лет назад. Несмотря на просьбы Дока не навещать его в XIX веке, Марти вновь хочет вмешаться в ход событий и на машине времени уносится в 1885 год, навстречу Дикому Западу. Это путешествие, как и все прежние, не обходится без опасных приключений, но смелый Марти, рискуя жизнью, предотвращает трагедию в жизни Эммета Брауна. Тот, в свою очередь, без памяти влюбляется в очаровательную незнакомку, которую спасает от гибели, и поездка домой - в будущее - теряет для него всякий смысл...

VideoID : 1Format : AVCFormat/Info : Advanced Video CodecFormat profile : [email protected] settings, CABAC : YesFormat settings, ReFrames : 8 framesCodec ID : avc1Codec ID/Info : Advanced Video CodingDuration : 1 h 58 minBit rate : 1 445 kb/sMaximum bit rate : 6 539 kb/sWidth : 960 pixelsHeight : 520 pixelsDisplay aspect ratio : 1.85:1Frame rate mode : ConstantFrame rate : 23.976 (24000/1001) FPSOriginal frame rate : 23.976 (23976/1000) FPSColor space : YUVChroma subsampling : 4:2:0Bit depth : 8 bitsScan type : ProgressiveBits/(Pixel*Frame) : 0.121Stream size : 1.19 GiB (42%)Writing library : x264 core 148 r2705 3f5ed56Encoding settings : cabac=1 / ref=8 / deblock=1:-2:-2 / analyse=0x3:0x113 / me=umh / subme=11 / psy=1 / psy_rd=1.00:0.05 / mixed_ref=1 / me_range=32 / chroma_me=1 / trellis=2 / 8x8dct=1 / cqm=0 / deadzone=21,11 / fast_pskip=0 / chroma_qp_offset=-3 / threads=6 / lookahead_threads=1 / sliced_threads=0 / nr=0 / decimate=0 / interlaced=0 / bluray_compat=0 / constrained_intra=0 / bframes=8 / b_pyramid=2 / b_adapt=2 / b_bias=0 / direct=3 / weightb=1 / open_gop=0 / weightp=2 / keyint=250 / keyint_min=23 / scenecut=40 / intra_refresh=0 / rc=2pass / mbtree=0 / bitrate=1445 / ratetol=1.0 / qcomp=0.60 / qpmin=0 / qpmax=69 / qpstep=4 / cplxblur=20.0 / qblur=0.5 / ip_ratio=1.40 / pb_ratio=1.30 / aq=1:0.70Language : EnglishEncoded date : UTC 2016-12-08 15:02:08Tagged date : UTC 2016-12-08 15:04:10Color range : LimitedColor primaries : BT.709Transfer characteristics : BT.709Matrix coefficients : BT.709

Audio #1ID : 2Format : AACFormat/Info : Advanced Audio CodecFormat profile : LCCodec ID : 40Duration : 1 h 58 minBit rate mode : VariableBit rate : 128 kb/sMaximum bit rate : 135 kb/sChannel(s) : 2 channelsChannel positions : Front: L RSampling rate : 48.0 kHzFrame rate : 46.875 FPS (1024 spf)Compression mode : LossyStream size : 108 MiB (4%)Title : [Dub] Pifagor / [Dub] PifagorLanguage : RussianDefault : YesAlternate group : 1Encoded date : UTC 2016-12-08 15:02:29Tagged date : UTC 2016-12-08 15:04:10

Audio #2ID : 3Format : AACFormat/Info : Advanced Audio CodecFormat profile : LCCodec ID : 40Duration : 1 h 58 minBit rate mode : VariableBit rate : 128 kb/sMaximum bit rate : 135 kb/sChannel(s) : 2 channelsChannel positions : Front: L RSampling rate : 48.0 kHzFrame rate : 46.875 FPS (1024 spf)Compression mode : LossyStream size : 108 MiB (4%)Title : [MVO] [FDV] / [MVO] [FDV]Language : RussianDefault : NoAlternate group : 1Encoded date : UTC 2016-12-08 15:02:39Tagged date : UTC 2016-12-08 15:04:10

Audio #3ID : 4Format : AACFormat/Info : Advanced Audio CodecFormat profile : LCCodec ID : 40Duration : 1 h 58 minBit rate mode : VariableBit rate : 128 kb/sMaximum bit rate : 135 kb/sChannel(s) : 2 channelsChannel positions : Front: L RSampling rate : 48.0 kHzFrame rate : 46.875 FPS (1024 spf)Compression mode : LossyStream size : 108 MiB (4%)Title : [MVO] OPT / [MVO] OPTLanguage : RussianDefault : NoAlternate group : 1Encoded date : UTC 2016-12-08 15:02:45Tagged date : UTC 2016-12-08 15:04:10

Audio #4ID : 5Format : AACFormat/Info : Advanced Audio CodecFormat profile : LCCodec ID : 40Duration : 1 h 58 minBit rate mode : VariableBit rate : 128 kb/sMaximum bit rate : 135 kb/sChannel(s) : 2 channelsChannel positions : Front: L RSampling rate : 48.0 kHzFrame rate : 46.875 FPS (1024 spf)Compression mode : LossyStream size : 108 MiB (4%)Title : [DVO] Glanz and Lutaya / [DVO] Glanz and LutayaLanguage : RussianDefault : NoAlternate group : 1Encoded date : UTC 2016-12-08 15:02:52Tagged date : UTC 2016-12-08 15:04:10

Audio #5ID : 6Format : AACFormat/Info : Advanced Audio CodecFormat profile : LCCodec ID : 40Duration : 1 h 58 minBit rate mode : VariableBit rate : 128 kb/sMaximum bit rate : 135 kb/sChannel(s) : 2 channelsChannel positions : Front: L RSampling rate : 48.0 kHzFrame rate : 46.875 FPS (1024 spf)Compression mode : LossyStream size : 108 MiB (4%)Title : [DVO] Premier_videoLanguage : RussianDefault : NoAlternate group : 1Encoded date : UTC 2016-12-08 15:02:58Tagged date : UTC 2016-12-08 15:04:10

Audio #6ID : 7Format : AACFormat/Info : Advanced Audio CodecFormat profile : LCCodec ID : 40Duration : 1 h 58 minBit rate mode : VariableBit rate : 128 kb/sMaximum bit rate : 135 kb/sChannel(s) : 2 channelsChannel positions : Front: L RSampling rate : 48.0 kHzFrame rate : 46.875 FPS (1024 spf)Compression mode : LossyStream size : 108 MiB (4%)Title : [DVO] Kinomaniya [DDV] [Biz video]Language : RussianDefault : NoAlternate group : 1Encoded date : UTC 2016-12-08 15:03:03Tagged date : UTC 2016-12-08 15:04:10

Audio #7ID : 8Format : AACFormat/Info : Advanced Audio CodecFormat profile : LCCodec ID : 40Duration : 1 h 58 minBit rate mode : VariableBit rate : 128 kb/sMaximum bit rate : 135 kb/sChannel(s) : 2 channelsChannel positions : Front: L RSampling rate : 48.0 kHzFrame rate : 46.875 FPS (1024 spf)Compression mode : LossyStream size : 108 MiB (4%)Title : [DVO] [CTC=HTB] / [DVO] [CTC=HTB]Language : RussianDefault : NoAlternate group : 1Encoded date : UTC 2016-12-08 15:03:10Tagged date : UTC 2016-12-08 15:04:10

Audio #8ID : 9Format : AACFormat/Info : Advanced Audio CodecFormat profile : LCCodec ID : 40Duration : 1 h 58 minBit rate mode : VariableBit rate : 128 kb/sMaximum bit rate : 135 kb/sChannel(s) : 2 channelsChannel positions : Front: L RSampling rate : 48.0 kHzFrame rate : 46.875 FPS (1024 spf)Compression mode : LossyStream size : 108 MiB (4%)Title : [DVO] 1_1 / [DVO] 1_1Language : UkrainianDefault : NoAlternate group : 1Encoded date : UTC 2016-12-08 15:03:18Tagged date : UTC 2016-12-08 15:04:10

Audio #9ID : 10Format : AACFormat/Info : Advanced Audio CodecFormat profile : LCCodec ID : 40Duration : 1 h 58 minBit rate mode : VariableBit rate : 128 kb/sMaximum bit rate : 135 kb/sChannel(s) : 2 channelsChannel positions : Front: L RSampling rate : 48.0 kHzFrame rate : 46.875 FPS (1024 spf)Compression mode : LossyStream size : 108 MiB (4%)Title : [DVO] Novui Kanal / [DVO] Novui KanalLanguage : UkrainianDefault : NoAlternate group : 1Encoded date : UTC 2016-12-08 15:03:25Tagged date : UTC 2016-12-08 15:04:10

Audio #10ID : 11Format : AACFormat/Info : Advanced Audio CodecFormat profile : LCCodec ID : 40Duration : 1 h 58 minBit rate mode : VariableBit rate : 128 kb/sMaximum bit rate : 135 kb/sChannel(s) : 2 channelsChannel positions : Front: L RSampling rate : 48.0 kHzFrame rate : 46.875 FPS (1024 spf)Compression mode : LossyStream size : 108 MiB (4%)Title : [VO] Gavrilov / [VO] GavrilovLanguage : RussianDefault : NoAlternate group : 1Encoded date : UTC 2016-12-08 15:03:30Tagged date : UTC 2016-12-08 15:04:10

Audio #11ID : 12Format : AACFormat/Info : Advanced Audio CodecFormat profile : LCCodec ID : 40Duration : 1 h 58 minBit rate mode : VariableBit rate : 128 kb/sMaximum bit rate : 135 kb/sChannel(s) : 2 channelsChannel positions : Front: L RSampling rate : 48.0 kHzFrame rate : 46.875 FPS (1024 spf)Compression mode : LossyStream size : 108 MiB (4%)Title : [VO] Mikhalev / [VO] MikhalevLanguage : RussianDefault : NoAlternate group : 1Encoded date : UTC 2016-12-08 15:03:37Tagged date : UTC 2016-12-08 15:04:10

Audio #12ID : 13Format : AACFormat/Info : Advanced Audio CodecFormat profile : LCCodec ID : 40Duration : 1 h 58 minBit rate mode : VariableBit rate : 128 kb/sMaximum bit rate : 135 kb/sChannel(s) : 2 channelsChannel positions : Front: L RSampling rate : 48.0 kHzFrame rate : 46.875 FPS (1024 spf)Compression mode : LossyStream size : 108 MiB (4%)Title : [VO] Sanaev / [VO] SanaevLanguage : RussianDefault : NoAlternate group : 1Encoded date : UTC 2016-12-08 15:03:44Tagged date : UTC 2016-12-08 15:04:10

Audio #13ID : 14Format : AACFormat/Info : Advanced Audio CodecFormat profile : LCCodec ID : 40Duration : 1 h 58 minBit rate mode : VariableBit rate : 128 kb/sMaximum bit rate : 135 kb/sChannel(s) : 2 channelsChannel positions : Front: L RSampling rate : 48.0 kHzFrame rate : 46.875 FPS (1024 spf)Compression mode : LossyStream size : 108 MiB (4%)Title : [VO] Gorchakov / [VO] GorchakovLanguage : RussianDefault : NoAlternate group : 1Encoded date : UTC 2016-12-08 15:03:51Tagged date : UTC 2016-12-08 15:04:10

Audio #14ID : 15Format : AACFormat/Info : Advanced Audio CodecFormat profile : LCCodec ID : 40Duration : 1 h 58 minBit rate mode : VariableBit rate : 128 kb/sMaximum bit rate : 135 kb/sChannel(s) : 2 channelsChannel positions : Front: L RSampling rate : 48.0 kHzFrame rate : 46.875 FPS (1024 spf)Compression mode : LossyStream size : 108 MiB (4%)Title : [VO] studiya MEGA / [VO] studiya MEGALanguage : RussianDefault : NoAlternate group : 1Encoded date : UTC 2016-12-08 15:03:57Tagged date : UTC 2016-12-08 15:04:10

Audio #15ID : 16Format : AACFormat/Info : Advanced Audio CodecFormat profile : LCCodec ID : 40Duration : 1 h 58 minBit rate mode : VariableBit rate : 128 kb/sMaximum bit rate : 135 kb/sChannel(s) : 2 channelsChannel positions : Front: L RSampling rate : 48.0 kHzFrame rate : 46.875 FPS (1024 spf)Compression mode : LossyStream size : 108 MiB (4%)Title : [Original] / [Original]Language : EnglishDefault : NoAlternate group : 1Encoded date : UTC 2016-12-08 15:04:03Tagged date : UTC 2016-12-08 15:04:10

Text #1ID : 17Format : Timed TextMuxing mode : sbtlCodec ID : tx3gDuration : 1 h 51 minBit rate mode : VariableBit rate : 95 b/sStream size : 77.0 KiB (0%)Title : [Full] / [Full]Language : RussianDefault : YesForced : NoAlternate group : 2Encoded date : UTC 2016-12-08 15:04:10Tagged date : UTC 2016-12-08 15:04:10

Text #2ID : 18Format : Timed TextMuxing mode : sbtlCodec ID : tx3gDuration : 1 h 51 minBit rate mode : VariableBit rate : 70 b/sStream size : 56.9 KiB (0%)Title : [Original] / [Original]Language : EnglishDefault : NoForced : NoAlternate group : 2Encoded date : UTC 2016-12-08 15:04:10Tagged date : UTC 2016-12-08 15:04:10


Трекер:  [ 13-Дек-2016 10:00 ]

  

Скачать .torrent

Размер .torrent файла 24 KB


Размер: 9.35 GB
Хэш (hash) релиза: 5505fddd2266689070704e26b7bad253cc9133c1

Еще никто не оставлял запись к записи скачать торрент [VIDEO] Назад в будущее 1, 2, 3: Трилогия Back to the Future Part I, II, III: Trilogy . Будь первым!

!Обратная связь