Edge.of.Isolation.2018.HDRip.XViD-ETRG | Джеральд Даррелл | Um Lugar Silencioso - Legendado Drama / Ficção / Suspense / Terror Idioma: Inglês 2018 MKV Torrent DownloadVídeo 10 / Áudio 10CompletoSinopse: Uma família vive numa casa de campo, em absoluto silêncio e se comunicando através de sinais, na tentativa de sobreviver à uma ameaça...

Скачать через торрент [VIDEO] Освобождение. Фильм второй. Направление главного удара бесплатно русская версия torrent активатор

Статистика раздачи
Размер:  2.85 GB   |    Зарегистрирован:  1 год 7 месяцев   |    .torrent скачан:  42 раза   |   
Раздают:  1  
   
загрузка...
 
Автор Сообщение

Galfimbul

avatar Galfimbul



<span class="post-font-serif1">Освобождение. Фильм третий. Направление главного удара</span>
<span class="post-font-serif1">Год выпуска: 1970
Страна: СССР, Германия (ГДР), Польша, Италия
Жанр: драма, мелодрама, военный
Продолжительность: 02:10:38
Перевод: Не требуется
Cубтитры: русские, английские

Режиссер: Юрий Озеров
Сценарий: Юрий Бондарев, Оскар Курганов, Юрий Озеров
Оператор: Игорь Слабневич
Композитор: Юрий Левитин
Художник: Александр Мягков, Диляра Озерова
Монтаж: Екатерина Карпова

В ролях: Николай Олялин, Лариса Голубкина, Борис Зайденберг, Сергей Никоненко, Михаил Ульянов, Владлен Давыдов, Василий Шукшин, Евгений Буренков, Дмитрий Франько, Юрий Каморный, Бухути Закариадзе, Михаил Ножкин, Иван Переверзев, Владислав Стржельчик, Анатолий Ромашин, Николай Рыбников, Валерий Носик, Владимир Коренев, Эдуард Изотов, Юрий Легков, Всеволод Санаев, Владимир Самойлов, Игорь Озеров, Сергей Харченко, Николай Рушковский, Константин Забелин, Виктор Авдюшко, Владимир Заманский, Клеон Протасов, Александр Афанасьев, Алексей Глазырин, Пётр Глебов, Григорий Михайлов, Пётр Щербаков, Роман Ткачук, Сергей Ляхницкий, Валерий Карен, Виктор Байков, Николай Боголюбов, Владимир Герасимов, Михаил Глузский, Николай Ерёменко (старший), Петр Любешкин, Иван Миколайчук, Лев Прыгунов, Роман Хомятов, Волдемар Акуратерс, Алексей Алексеев, Вадим Грачёв, Юлия Диоши, Юрий Мартынов, Юрий Померанцев, Михаил Постников, Алексей Преснецов, Олев Эскола, Анатолий Кузнецов, Николай Лебедев (II), Лев Поляков, Александр Смирнов, Александр Барушной, Виктор Борцов, Елизавета Алексеева (II), Леонид Довлатов, Николай Симкин, Юрий Дуров, Виктор Шахов, Иосиф (Сосо) Гогичайшвили, В. Вахлин, Владимир Разумовский, Фриц Диц

Описание: Фильм третий — «Направление главного удара» посвящен операции «Багратион», в результате которой была полностью освобождена от фашистских войск Белоруссия, и войска Советской армии вышли к государственной границе…

Качество: BDRip | <span class="post-font-serif1">Освобождение / Befreiung / Liberation (1969-1971) {3-Disc Remastered Edition} Blu-ray [Custom] 1080p AVC DD2.0 HDCLUB
Формат: MP4

Видео: AVC (x264), 1280x544 (2.35:1), ~2960 kbps, 24.000 fps, 0.177 bpp
Аудио: Русский, AСC, 48 KHz, 2 ch, 160 kbps

[b]Релиз:

</span></a></span></span></span>
[spoiler="x264 [info]"]
crop(0, 132, -0, -131)
raw [info]: 1280x544p 1:1 @ 24/1 fps (cfr)
x264 [info]: using SAR=1/1
x264 [info]: profile High, level 4.1
x264 [info]: frame I:933 Avg QP:19.78 size: 59727
x264 [info]: frame P:34448 Avg QP:22.50 size: 27638
x264 [info]: frame B:152747 Avg QP:24.61 size: 12390
x264 [info]: consecutive B-frames: 0.7% 1.1% 4.5% 13.3% 13.9% 41.3% 8.8% 5.6% 5.0% 1.5% 1.6% 2.7%
x264 [info]: mb I I16..4: 2.2% 88.7% 9.1%
x264 [info]: mb P I16..4: 0.6% 11.6% 0.6% P16..4: 39.1% 38.2% 8.2% 0.0% 0.0% skip: 1.7%
x264 [info]: mb B I16..4: 0.1% 1.3% 0.0% B16..8: 42.6% 16.6% 2.3% direct: 8.1% skip:29.0% L0:47.6% L1:45.9% BI: 6.5%
x264 [info]: 8x8 transform intra:90.5% inter:69.3%
x264 [info]: direct mvs spatial:99.4% temporal:0.6%
x264 [info]: coded y,uvDC,uvAC intra: 86.1% 30.4% 6.2% inter: 35.1% 18.3% 0.1%
x264 [info]: i16 v,h,dc,p: 29% 17% 6% 47%
x264 [info]: i8 v,h,dc,ddl,ddr,vr,hd,vl,hu: 6% 6% 7% 10% 16% 13% 16% 11% 15%
x264 [info]: i4 v,h,dc,ddl,ddr,vr,hd,vl,hu: 8% 7% 7% 8% 15% 13% 16% 10% 16%
x264 [info]: i8c dc,h,v,p: 57% 26% 10% 7%
x264 [info]: ref P L0: 47.1% 18.9% 11.7% 7.4% 5.2% 5.2% 4.5% 0.0%
x264 [info]: ref B L0: 69.2% 11.9% 7.8% 4.8% 3.5% 2.0% 0.8%
x264 [info]: ref B L1: 93.3% 6.7%
x264 [info]: kb/s:2959.97
<pre>
ОбщееУникальный идентификатор : 227417936005997326916453642766909069796 (0xAB1719EDC76A1DEEA32C8016671A59E4)Полное имя : C:\Osvobojdehie\03\[email protected]Формат : MatroskaВерсия формата : Version 4 / Version 2Размер файла : 2,85 ГбайтПродолжительность : 2 ч. 10 м.Общий поток : 3123 Кбит/секНазвание фильма : Освобождение: Направление главного удара / 1970 [email protected]=-Дата кодирования : UTC 2016-12-09 05:49:28Программа кодирования : mkvmerge v9.6.0 ('Slave To Your Mind') 32bitБиблиотека кодирования : libebml v1.3.4 + libmatroska v1.4.5Attachments : 500.jpg

ВидеоИдентификатор : 1Формат : AVCФормат/Информация : Advanced Video CodecПрофиль формата : [email protected]Параметр CABAC формата : ДаПараметр ReFrames формата : 8 кадровИдентификатор кодека : V_MPEG4/ISO/AVCПродолжительность : 2 ч. 10 м.Битрейт : 2960 Кбит/секШирина : 1280 пикселейВысота : 544 пикселяСоотношение сторон : 2,35:1Режим частоты кадров : ПостоянныйЧастота кадров : 24,000 кадра/секЦветовое пространство : YUVСубдискретизация насыщенности : 4:2:0Битовая глубина : 8 битТип развёртки : ПрогрессивнаяБит/(Пиксели*Кадры) : 0.177Размер потока : 2,70 Гбайт (95%)Библиотека кодирования : x264 core 148 r2744 b97ae06Настройки программы : cabac=1 / ref=8 / deblock=1:-2:-1 / analyse=0x3:0x113 / me=umh / subme=11 / psy=1 / psy_rd=1.00:0.00 / mixed_ref=1 / me_range=32 / chroma_me=1 / trellis=2 / 8x8dct=1 / cqm=0 / deadzone=21,11 / fast_pskip=0 / chroma_qp_offset=-2 / threads=4 / lookahead_threads=1 / sliced_threads=0 / nr=0 / decimate=1 / interlaced=0 / bluray_compat=0 / constrained_intra=0 / bframes=11 / b_pyramid=2 / b_adapt=2 / b_bias=0 / direct=3 / weightb=1 / open_gop=0 / weightp=0 / keyint=230 / keyint_min=23 / scenecut=40 / intra_refresh=0 / rc_lookahead=50 / rc=2pass / mbtree=0 / bitrate=2960 / ratetol=1.0 / qcomp=0.60 / qpmin=0 / qpmax=69 / qpstep=4 / cplxblur=20.0 / qblur=0.5 / vbv_maxrate=50000 / vbv_bufsize=62500 / nal_hrd=none / filler=0 / ip_ratio=1.40 / pb_ratio=1.30 / aq=1:1.00Язык : RussianDefault : ДаForced : НетЦветовой диапазон : LimitedОсновные цвета : BT.709Характеристики трансфера : BT.709Коэффициенты матрицы : BT.709

АудиоИдентификатор : 2Формат : AACФормат/Информация : Advanced Audio CodecПрофиль формата : LCИдентификатор кодека : A_AACПродолжительность : 2 ч. 10 м.Битрейт : 161 Кбит/секКаналы : 2 каналаРасположение каналов : Front: L RЧастота : 48,0 КГцЧастота кадров : 46,875 кадров/сек (1024 spf)Метод сжатия : С потерямиРазмер потока : 150 Мбайт (5%)Язык : RussianDefault : ДаForced : Нет

Текст #1Идентификатор : 3Формат : UTF-8Идентификатор кодека : S_TEXT/UTF8Идентификатор кодека/Информация : UTF-8 Plain TextПродолжительность : 2 ч. 7 м.Битрейт : 66 бит/секCount of elements : 975Размер потока : 61,7 Кбайт (0%)Язык : RussianDefault : НетForced : Нет

Текст #2Идентификатор : 4Формат : UTF-8Идентификатор кодека : S_TEXT/UTF8Идентификатор кодека/Информация : UTF-8 Plain TextПродолжительность : 2 ч. 7 м.Битрейт : 41 бит/секCount of elements : 1008Размер потока : 38,5 Кбайт (0%)Язык : EnglishDefault : НетForced : Нет

Меню00:00:00.000 : :Chapter 0100:00:15.250 : :Chapter 0200:05:50.958 : :Chapter 0300:10:36.083 : :Chapter 0400:14:42.208 : :Chapter 0500:19:24.875 : :Chapter 0600:24:55.416 : :Chapter 0700:28:55.916 : :Chapter 0800:37:38.375 : :Chapter 0900:40:49.958 : :Chapter 1000:42:44.666 : :Chapter 1100:45:35.791 : :Chapter 1200:47:06.083 : :Chapter 1300:54:00.125 : :Chapter 1401:00:52.625 : :Chapter 1501:10:35.083 : :Chapter 1601:13:08.500 : :Chapter 1701:16:32.291 : :Chapter 1801:20:35.833 : :Chapter 1901:23:37.416 : :Chapter 2001:30:21.833 : :Chapter 2101:32:25.458 : :Chapter 2201:39:41.125 : :Chapter 2301:46:51.541 : :Chapter 2401:54:48.375 : :Chapter 2502:01:35.833 : :Chapter 2602:05:11.083 : :Chapter 2702:08:00.416 : :Chapter 2802:10:31.416 : :Chapter 29
</pre>[/spoiler]

Трекер:  [ 13-Дек-2016 06:00 ]

  

Скачать .torrent

Размер .torrent файла 14 KB


Размер: 2.85 GB
Хэш (hash) релиза: 37b5cb8e0a0a95497bf2f64da56b803c9b47b74d

Еще никто не оставлял запись к записи скачать торрент [VIDEO] Освобождение. Фильм второй. Направление главного удара . Будь первым!

!Обратная связь