Off Pedder - 畢打自己人Off Pedder | OpenLoadHD | Best of Christophe Michalak

Скачать через торрент [VIDEO] Освобождение. Фильм первый. Огненная дуга бесплатно русская версия torrent активатор

Статистика раздачи
Размер:  2 GB   |    Зарегистрирован:  1 год 7 месяцев   |    .torrent скачан:  31 раз   |   
Раздают:  1  
   
загрузка...
 
Автор Сообщение

Galfimbul

avatar Galfimbul



<span class="post-font-serif1">Освобождение. Фильм первый. Огненная дуга</span>
<span class="post-font-serif1">Год выпуска: 1968
Страна: СССР, Германия (ГДР), Польша, Италия
Жанр: драма, мелодрама, военный
Продолжительность: 01:31:35
Перевод: Не требуется
Cубтитры: русские, английские

Режиссер: Юрий Озеров
Сценарий: Юрий Бондарев, Оскар Курганов, Юрий Озеров
Оператор: Игорь Слабневич, Амина Ахметова, Виталий Абрамов
Композитор: Юрий Левитин
Художник: Александр Мягков, Диляра Озерова
Монтаж: Екатерина Карпова

В ролях: Николай Олялин, Лариса Голубкина, Борис Зайденберг, Сергей Никоненко, Михаил Ульянов, Владлен Давыдов, Василий Шукшин, Евгений Буренков, Дмитрий Франько, Юрий Каморный, Бухути Закариадзе, Михаил Ножкин, Иван Переверзев, Владислав Стржельчик, Анатолий Ромашин, Николай Рыбников, Валерий Носик, Владимир Коренев, Эдуард Изотов, Юрий Легков, Всеволод Санаев, Владимир Самойлов, Игорь Озеров, Сергей Харченко, Николай Рушковский, Константин Забелин, Виктор Авдюшко, Владимир Заманский, Клеон Протасов, Александр Афанасьев, Алексей Глазырин, Пётр Глебов, Григорий Михайлов, Пётр Щербаков, Роман Ткачук, Сергей Ляхницкий, Валерий Карен, Виктор Байков, Николай Боголюбов, Владимир Герасимов, Михаил Глузский, Николай Ерёменко (старший), Петр Любешкин, Иван Миколайчук, Лев Прыгунов, Роман Хомятов, Волдемар Акуратерс, Алексей Алексеев, Вадим Грачёв, Юлия Диоши, Юрий Мартынов, Юрий Померанцев, Михаил Постников, Алексей Преснецов, Олев Эскола, Анатолий Кузнецов, Николай Лебедев (II), Лев Поляков, Александр Смирнов, Александр Барушной, Виктор Борцов, Елизавета Алексеева (II), Леонид Довлатов, Николай Симкин, Юрий Дуров, Виктор Шахов, Иосиф (Сосо) Гогичайшвили, В. Вахлин, Владимир Разумовский, Фриц Диц

Описание: Фильм первый — «Огненная Дуга» повествует о грандиозной битве на Курской дуге летом 1943 года. Здесь произошло самое крупное в истории Второй мировой войны танковое сражение. Наряду с личными судьбами героев в фильме показаны батальные сцены, деятельность штабов и разведок, тех, кто трудился на фронте и в тылу.

Качество: BDRip | <span class="post-font-serif1">Освобождение / Befreiung / Liberation (1969-1971) {3-Disc Remastered Edition} Blu-ray [Custom] 1080p AVC DD2.0 HDCLUB
Формат: MP4

Видео: AVC (x264), 1280x544 (2.35:1), ~2960 kbps, 24.000 fps, 0.177 bpp
Аудио: Русский, AСC, 48 KHz, 2 ch, 160 kbps

[b]Релиз:

</span></a></span></span></span>
[spoiler="x264 [info]"]
crop(0, 132, -0, -131)
raw [info]: 1280x544p 1:1 @ 24/1 fps (cfr)
x264 [info]: using SAR=1/1
x264 [info]: profile High, level 4.1
x264 [info]: frame I:663 Avg QP:19.70 size: 63454
x264 [info]: frame P:25326 Avg QP:22.21 size: 27856
x264 [info]: frame B:105873 Avg QP:24.09 size: 12133
x264 [info]: consecutive B-frames: 1.0% 2.0% 5.7% 14.4% 14.5% 39.7% 8.5% 4.4% 4.5% 1.4% 1.6% 2.3%
x264 [info]: mb I I16..4: 1.7% 90.0% 8.3%
x264 [info]: mb P I16..4: 0.5% 11.0% 0.6% P16..4: 38.5% 39.4% 8.8% 0.0% 0.0% skip: 1.3%
x264 [info]: mb B I16..4: 0.0% 0.9% 0.0% B16..8: 43.2% 18.1% 2.2% direct: 8.9% skip:26.6% L0:47.3% L1:45.7% BI: 7.0%
x264 [info]: 8x8 transform intra:91.2% inter:68.7%
x264 [info]: direct mvs spatial:99.1% temporal:0.9%
x264 [info]: coded y,uvDC,uvAC intra: 90.9% 44.1% 11.6% inter: 38.2% 23.7% 0.3%
x264 [info]: i16 v,h,dc,p: 20% 19% 6% 55%
x264 [info]: i8 v,h,dc,ddl,ddr,vr,hd,vl,hu: 5% 6% 4% 11% 17% 13% 17% 11% 16%
x264 [info]: i4 v,h,dc,ddl,ddr,vr,hd,vl,hu: 6% 7% 3% 8% 16% 14% 18% 10% 17%
x264 [info]: i8c dc,h,v,p: 49% 28% 12% 11%
x264 [info]: ref P L0: 48.6% 19.4% 11.1% 7.0% 4.9% 4.9% 4.1% 0.0%
x264 [info]: ref B L0: 69.7% 12.6% 7.7% 4.3% 3.1% 1.9% 0.7%
x264 [info]: ref B L1: 93.8% 6.2%
x264 [info]: kb/s:2958.84
encoded 131862 frames, 4.76 fps, 2958.84 kb/s
<pre>
ОбщееУникальный идентификатор : 254788165114316763386046265362435310680 (0xBFAE6A69259A7F30BD403AD055048458)Полное имя : F:\Maintracker\Освобождение_Огненная дуга 1968\[email protected]Формат : MatroskaВерсия формата : Version 4 / Version 2Размер файла : 2,00 ГбайтПродолжительность : 1 ч. 31 м.Общий поток : 3122 Кбит/секНазвание фильма : Освобождение: Огненная дуга / 1969 [email protected]=-Дата кодирования : UTC 2016-12-05 17:04:15Программа кодирования : mkvmerge v9.6.0 ('Slave To Your Mind') 32bitБиблиотека кодирования : libebml v1.3.4 + libmatroska v1.4.5Attachments : 500.jpg

ВидеоИдентификатор : 1Формат : AVCФормат/Информация : Advanced Video CodecПрофиль формата : [email protected]Параметр CABAC формата : ДаПараметр ReFrames формата : 8 кадровИдентификатор кодека : V_MPEG4/ISO/AVCПродолжительность : 1 ч. 31 м.Битрейт : 2959 Кбит/секШирина : 1280 пикселейВысота : 544 пикселяСоотношение сторон : 2,35:1Режим частоты кадров : ПостоянныйЧастота кадров : 24,000 кадра/секЦветовое пространство : YUVСубдискретизация насыщенности : 4:2:0Битовая глубина : 8 битТип развёртки : ПрогрессивнаяБит/(Пиксели*Кадры) : 0.177Размер потока : 1,89 Гбайт (95%)Заголовок : Rip by nnlabetikБиблиотека кодирования : x264 core 148 r2744 b97ae06Настройки программы : cabac=1 / ref=8 / deblock=1:-2:-1 / analyse=0x3:0x113 / me=umh / subme=11 / psy=1 / psy_rd=1.00:0.00 / mixed_ref=1 / me_range=32 / chroma_me=1 / trellis=2 / 8x8dct=1 / cqm=0 / deadzone=21,11 / fast_pskip=0 / chroma_qp_offset=-2 / threads=4 / lookahead_threads=1 / sliced_threads=0 / nr=0 / decimate=1 / interlaced=0 / bluray_compat=0 / constrained_intra=0 / bframes=11 / b_pyramid=2 / b_adapt=2 / b_bias=0 / direct=3 / weightb=1 / open_gop=0 / weightp=0 / keyint=230 / keyint_min=23 / scenecut=40 / intra_refresh=0 / rc_lookahead=50 / rc=2pass / mbtree=0 / bitrate=2959 / ratetol=1.0 / qcomp=0.60 / qpmin=0 / qpmax=69 / qpstep=4 / cplxblur=20.0 / qblur=0.5 / vbv_maxrate=50000 / vbv_bufsize=62500 / nal_hrd=none / filler=0 / ip_ratio=1.40 / pb_ratio=1.30 / aq=1:1.00Язык : RussianDefault : ДаForced : НетЦветовой диапазон : LimitedОсновные цвета : BT.709Характеристики трансфера : BT.709Коэффициенты матрицы : BT.709

АудиоИдентификатор : 2Формат : AACФормат/Информация : Advanced Audio CodecПрофиль формата : LCИдентификатор кодека : A_AACПродолжительность : 1 ч. 31 м.Битрейт : 161 Кбит/секКаналы : 2 каналаРасположение каналов : Front: L RЧастота : 48,0 КГцЧастота кадров : 46,875 кадров/сек (1024 spf)Метод сжатия : С потерямиРазмер потока : 105 Мбайт (5%)Язык : RussianDefault : ДаForced : Нет

Текст #1Идентификатор : 3Формат : UTF-8Идентификатор кодека : S_TEXT/UTF8Идентификатор кодека/Информация : UTF-8 Plain TextПродолжительность : 1 ч. 30 м.Битрейт : 59 бит/секCount of elements : 614Размер потока : 39,1 Кбайт (0%)Язык : RussianDefault : НетForced : Нет

Текст #2Идентификатор : 4Формат : UTF-8Идентификатор кодека : S_TEXT/UTF8Идентификатор кодека/Информация : UTF-8 Plain TextПродолжительность : 1 ч. 31 м.Битрейт : 37 бит/секCount of elements : 676Размер потока : 25,2 Кбайт (0%)Язык : EnglishDefault : НетForced : Нет

Меню00:00:00.000 : :Chapter 0100:00:15.833 : :Chapter 0200:05:35.750 : :Chapter 0300:10:00.833 : :Chapter 0400:12:48.333 : :Chapter 0500:18:26.708 : :Chapter 0600:28:12.541 : :Chapter 0700:30:48.791 : :Chapter 0800:34:34.666 : :Chapter 0900:39:34.666 : :Chapter 1000:51:48.000 : :Chapter 1100:56:36.083 : :Chapter 1200:59:23.000 : :Chapter 1301:02:22.416 : :Chapter 1401:05:10.958 : :Chapter 1501:07:23.000 : :Chapter 1601:23:41.750 : :Chapter 1701:28:31.333 : :Chapter 1801:31:25.291 : :Chapter 19
</pre>[/spoiler]

Трекер:  [ 08-Дек-2016 14:00 ]

  

Скачать .torrent

Размер .torrent файла 20 KB


Размер: 2 GB
Хэш (hash) релиза: 10576cfcce487fe4f55dd4c3a470ff1973e2224c

Еще никто не оставлял запись к записи скачать торрент [VIDEO] Освобождение. Фильм первый. Огненная дуга . Будь первым!

!Обратная связь