Highres Movies | Joe Lynch | Great Rail Restorations S01E01 480p x264-mSD 45 minutes

Скачать через торрент [VIDEO] Дом странных детей Мисс Перегрин Miss Peregrines Home for Peculiar Children бесплатно русская версия torrent активатор

Статистика раздачи
Размер:  2.05 GB   |    Зарегистрирован:  1 год 7 месяцев   |    .torrent скачан:  40 раз   |   
Раздают:  1  
   
загрузка...
 
Автор Сообщение

Galfimbul

avatar Galfimbul


Дом странных детей Мисс Перегрин / Miss Peregrine's Home for Peculiar Children
«Stay peculiar»
Премьера (РФ): 6 октября 2016
Оригинальное название: Miss Peregrine's Home for Peculiar Children
Страна: США, Великобритания, Бельгия
Жанр: фэнтези, драма, приключения, семейный
Возраст: 16+

Режиссер: Тим Бёртон / Tim Burton

В ролях: Ева Грин, Эйса Баттерфилд, Сэмюэл Л. Джексон, Джуди Денч, Руперт Эверетт, Эллисон Джэнни, Крис О`Дауд, Теренс Стэмп, Элла Пёрнелл, Финлэй МакМиллан, Лорен МакКрости, Хейден Килер-Стоун, Джорджия Пембертон, Майло Паркер, Раффиелла Чепмен, Пикси Дейвис

Описание: Детство Джейкоба прошло под рассказы дедушки о приюте для необычных детей. Среди его обитателей девочка, которая умела держать в руках огонь, девочка, чьи ноги не касались земли, невидимый мальчик и близнецы, умевшие общаться без слов. Когда дедушка умирает, 16-летний Джейкоб получает загадочное письмо и отправляется на остров, где вырос его дед. Там он находит детей, которых раньше видел только на фотографиях.

Продолжительность: 02:06:55
Перевод: Дублированный [Лицензия BD CEE]
Оригинальная дорожка: нет

Автор рипа:

Качество видео: BDRip Исходник: Blu-Ray Remux (1080p) Формат: mp4
Видео кодек: MPEG-4 AVC Аудио кодек: AAC
Видео: 1280x692 (1.85:1) at 23.976 fps, AVC at 2 181 kbps avg, 0.103 bit/pixel
Аудио №1 Rus: 48.0 KHz, AAC, 2 ch, 128.0 Kbps
Субтитры: нет
Навигация по главам: есть
avs [info]: 1280x692p 1:1 @ 24000/1001 fps (cfr)
x264 [info]: using SAR=1/1
x264 [info]: using cpu capabilities: MMX2 SSE2Fast SSSE3 Cache64
x264 [info]: profile High, level 3.1
x264 [info]: frame I:2595 Avg QP:16.25 size: 89569
x264 [info]: frame P:75608 Avg QP:19.76 size: 18579
x264 [info]: frame B:104389 Avg QP:21.91 size: 4211
x264 [info]: consecutive B-frames: 16.7% 25.1% 12.6% 12.6% 22.0% 11.0%
x264 [info]: mb I I16..4: 10.2% 64.7% 25.1%
x264 [info]: mb P I16..4: 0.9% 4.9% 1.1% P16..4: 40.6% 15.3% 10.8% 0.0% 0.0% skip:26.4%
x264 [info]: mb B I16..4: 0.0% 0.2% 0.1% B16..8: 36.4% 3.1% 0.7% direct: 1.2% skip:58.3% L0:42.7% L1:52.5% BI: 4.8%
x264 [info]: 8x8 transform intra:68.5% inter:78.7%
x264 [info]: coded y,uvDC,uvAC intra: 68.8% 71.0% 38.0% inter: 15.3% 16.1% 1.2%
x264 [info]: i16 v,h,dc,p: 32% 14% 6% 48%
x264 [info]: i8 v,h,dc,ddl,ddr,vr,hd,vl,hu: 21% 13% 18% 6% 8% 9% 8% 8% 8%
x264 [info]: i4 v,h,dc,ddl,ddr,vr,hd,vl,hu: 34% 14% 11% 6% 8% 8% 7% 6% 5%
x264 [info]: i8c dc,h,v,p: 53% 18% 22% 7%
x264 [info]: Weighted P-Frames: Y:3.5% UV:1.4%
x264 [info]: ref P L0: 59.3% 11.5% 15.1% 6.7% 5.3% 2.1% 0.1%
x264 [info]: ref B L0: 82.0% 12.3% 4.9% 0.7%
x264 [info]: ref B L1: 92.8% 7.2%
x264 [info]: kb/s:2181.51
encoded 182592 frames, 2.99 fps, 2181.51 kb/s
GeneralComplete name : D:\Torrents\Download\Dom_strannyx_detej_miss_peregrin_2016_KinoGadget.mp4Format : MPEG-4Format profile : Base MediaCodec ID : isom (isom/avc1/iso6)File size : 2.05 GiBDuration : 2 h 6 minOverall bit rate mode : VariableOverall bit rate : 2 317 kb/sMovie name : Дом странных детей Мисс Перегрин | KinoGadgetPerformer : Тим БёртонDirector : Тим БёртонActor : Ева Грин / Эйса Баттерфилд / Сэмюэл Л. Джексон / Джуди Денч / Руперт Эверетт / Эллисон Джэнни / Крис О`Дауд / Теренс Стэмп / Элла Пёрнелл / Финлэй МакМиллан / Лорен МакКрости / Хейден Килер-Стоун / Джорджия Пембертон / Майло Паркер / Раффиелла Чепмен / Пикси ДейвисScreenplay by : Джейн Голдман / Рэнсом РиггзProducer : Питер Чернин / Дженно Топпинг / Каттерли ФроуенфельдерGenre : Adventure, Drama, FamilyContentType : Short FilmRecorded date : 2016Encoded date : UTC 2016-12-08 02:32:12Tagged date : UTC 2016-12-08 05:06:10Cover : YesContentRating : mpaa|PG-13|300|LongDescription : Детство Джейкоба прошло под рассказы дедушки о приюте для необычных детей. Среди его обитателей девочка, которая умела держать в руках огонь, девочка, чьи ноги не касались земли, невидимый мальчик и близнецы, умевшие общаться без слов. Когда дедушка умирает, 16-летний Джейкоб получает загадочное письмо и отправляется на остров, где вырос его дед. Там он находит детей, которых раньше видел только на фотографиях.HDVideo : Yes

VideoID : 1Format : AVCFormat/Info : Advanced Video CodecFormat profile : [email protected] settings, CABAC : YesFormat settings, ReFrames : 5 framesCodec ID : avc1Codec ID/Info : Advanced Video CodingDuration : 2 h 6 minBit rate : 2 181 kb/sMaximum bit rate : 18.3 Mb/sWidth : 1 280 pixelsHeight : 692 pixelsDisplay aspect ratio : 1.85:1Frame rate mode : ConstantFrame rate : 23.976 (24000/1001) FPSColor space : YUVChroma subsampling : 4:2:0Bit depth : 8 bitsScan type : ProgressiveBits/(Pixel*Frame) : 0.103Stream size : 1.93 GiB (94%)Writing library : x264 core 148 r2638 7599210Encoding settings : cabac=1 / ref=5 / deblock=1:1:1 / analyse=0x3:0x113 / me=umh / subme=7 / psy=1 / psy_rd=1.00:0.00 / mixed_ref=1 / me_range=32 / chroma_me=1 / trellis=1 / 8x8dct=1 / cqm=0 / deadzone=21,11 / fast_pskip=1 / chroma_qp_offset=-2 / threads=3 / lookahead_threads=1 / sliced_threads=0 / nr=0 / decimate=1 / interlaced=0 / bluray_compat=0 / constrained_intra=0 / bframes=5 / b_pyramid=2 / b_adapt=1 / b_bias=0 / direct=1 / weightb=1 / open_gop=0 / weightp=2 / keyint=240 / keyint_min=23 / scenecut=40 / intra_refresh=0 / rc_lookahead=60 / rc=crf / mbtree=1 / crf=20.0 / qcomp=0.60 / qpmin=0 / qpmax=69 / qpstep=4 / vbv_maxrate=17500 / vbv_bufsize=17500 / crf_max=0.0 / nal_hrd=none / filler=0 / ip_ratio=1.40 / aq=1:1.00Encoded date : UTC 2016-12-08 02:32:12Tagged date : UTC 2016-12-08 02:33:29

AudioID : 2Format : AACFormat/Info : Advanced Audio CodecFormat profile : LCCodec ID : 40Duration : 2 h 6 minBit rate mode : VariableBit rate : 128 kb/sMaximum bit rate : 135 kb/sChannel(s) : 2 channelsChannel positions : Front: L RSampling rate : 48.0 kHzFrame rate : 46.875 FPS (1024 spf)Compression mode : LossyStream size : 116 MiB (6%)Title : Dub [License]Language : RussianEncoded date : UTC 2016-12-07 09:11:25Tagged date : UTC 2016-12-08 02:33:29

Menu00:00:00.000 : Chapter 0100:03:40.803 : Chapter 0200:08:38.017 : Chapter 0300:13:06.827 : Chapter 0400:15:26.550 : Chapter 0500:19:47.477 : Chapter 0600:23:23.652 : Chapter 0700:27:47.040 : Chapter 0800:31:06.447 : Chapter 0900:34:36.783 : Chapter 1000:39:34.997 : Chapter 1100:42:42.810 : Chapter 1200:46:05.637 : Chapter 1300:48:36.496 : Chapter 1400:54:16.461 : Chapter 1500:57:21.479 : Chapter 1601:02:03.261 : Chapter 1701:08:20.846 : Chapter 1801:14:29.006 : Chapter 1901:18:54.062 : Chapter 2001:24:15.300 : Chapter 2101:28:42.442 : Chapter 2201:33:11.752 : Chapter 2301:36:29.033 : Chapter 2401:40:43.787 : Chapter 2501:46:09.237 : Chapter 2601:53:35.308 : Chapter 2702:00:34.393 : Chapter 28
<a href="tracker.php?rid=39840292" class="postLink"> </a>

Трекер:  [ 08-Дек-2016 08:30 ]

  

Скачать .torrent

Размер .torrent файла 10 KB


Размер: 2.05 GB
Хэш (hash) релиза: be67f23373baab24e2628c74b089eefc6810a235

Еще никто не оставлял запись к записи скачать торрент [VIDEO] Дом странных детей Мисс Перегрин Miss Peregrines Home for Peculiar Children . Будь первым!

!Обратная связь