Misfit Garage | Billions | OpenLoad

Скачать через торрент [VIDEO] Дом странных детей Мисс Перегрин Miss Peregrines Home for Peculiar Children бесплатно русская версия torrent активатор

Статистика раздачи
Размер:  2.91 GB   |    Зарегистрирован:  1 год 7 месяцев   |    .torrent скачан:  34 раза   |   
Раздают:  1  
   
загрузка...
 
Автор Сообщение

Galfimbul

avatar Galfimbul



<span class="post-font-serif1">Дом странных детей Мисс Перегрин / Miss Peregrine's Home for Peculiar Children</span>
<span class="post-font-serif1">Год выпуска: 2016
Страна: США, Великобритания, Бельгия
Жанр: фэнтези, драма, приключения, семейный
Продолжительность: 02:06:55
Перевод: Профессиональный (дублированный) (BD EUR)
Оригинальная аудиодорожка: английский

Режиссер: Тим Бёртон / Tim Burton

В ролях: Ева Грин (Miss Peregrine), Эйса Баттерфилд (Jake), Сэмюэл Л. Джексон (Barron), Джуди Денч (Miss Avocet), Руперт Эверетт (Ornithologist), Эллисон Дженни (Dr. Golan), Крис О’Дауд (Franklin Portman), Теренс Стэмп (Abraham «Abe» Portman), Элла Пернелл (Emma Bloom), Финлэй МакМиллан (Enoch O'Conner), Лорен МакКрости (Olive Abroholos Elephanta), Хейден Килер-Стоун (Horace Somnusson)

Описание: Детство Джейкоба прошло под рассказы дедушки о приюте для необычных детей. Среди его обитателей девочка, которая умела держать в руках огонь, девочка, чьи ноги не касались земли, невидимый мальчик и близнецы, умевшие общаться без слов. Когда дедушка умирает, 16-летний Джейкоб получает загадочное письмо и отправляется на остров, где вырос его дед. Там он находит детей, которых раньше видел только на фотографиях.

Качество видео: BDRip | <span class="post-font-serif1">Дом странных детей Мисс Перегрин Miss Peregrine's Home for Peculiar Children (2016) Blu-ray EUR 1080p AVC DTS 5.1 HDCLUB
Формат видео: MP4

Видео: AVC (x264), 1280x692 (1.85:1), ~2960 kbps, 23.976 fps, 0.139 bpp
Аудио 1: Русский, AСC, 48 KHz, 2 ch, 160 kbps
Аудио 2: Английский, AСC, 48 KHz, 2 ch, 160 kbps
Cубтитры: русские, английские
Формат субтитров: softsub (SRT)</span></span>

[b]Релиз:

</span></a></span>
[spoiler="x264 [info]"]
crop(0, 20, -0, -21)
raw [info]:1280x692p 1:1 @ 24000/1001 fps (cfr)
x264 [info]: using SAR=1/1
x264 [info]: profile High, level 4.1
x264 [info]: frame I:1925 Avg QP:14.26 size:119547
x264 [info]: frame P:42980 Avg QP:17.53 size: 30560
x264 [info]: frame B:137687 Avg QP:19.84 size: 9246
x264 [info]: consecutive B-frames: 2.9% 3.0% 15.2% 20.2% 17.8% 31.9% 4.5% 1.7% 1.1% 0.5% 0.6% 0.4%
x264 [info]: mb I I16..4: 5.1% 77.5% 17.4%
x264 [info]: mb P I16..4: 0.7% 7.5% 1.5% P16..4: 32.5% 36.4% 12.5% 0.0% 0.0% skip: 9.0%
x264 [info]: mb B I16..4: 0.1% 0.8% 0.2% B16..8: 33.5% 18.6% 2.8% direct: 3.7% skip:40.2% L0:43.6% L1:46.1% BI:10.3%
x264 [info]: 8x8 transform intra:77.2% inter:62.2%
x264 [info]: direct mvs spatial:97.9% temporal:2.1%
x264 [info]: coded y,uvDC,uvAC intra: 83.4% 77.5% 50.7% inter: 17.3% 12.0% 1.5%
x264 [info]: i16 v,h,dc,p: 40% 9% 4% 47%
x264 [info]: i8 v,h,dc,ddl,ddr,vr,hd,vl,hu: 11% 7% 7% 9% 13% 14% 13% 12% 13%
x264 [info]: i4 v,h,dc,ddl,ddr,vr,hd,vl,hu: 26% 6% 6% 8% 12% 12% 11% 9% 10%
x264 [info]: i8c dc,h,v,p: 35% 28% 21% 16%
x264 [info]: ref P L0: 58.6% 16.8% 9.2% 5.1% 3.7% 3.5% 3.0% 0.1%
x264 [info]: ref B L0: 74.4% 12.1% 6.3% 3.1% 2.2% 1.3% 0.5%
x264 [info]: ref B L1: 94.4% 5.6%
x264 [info]: kb/s:2958.83
<pre>
ОбщееУникальный идентификатор : 240332230765991178038564987025475115749 (0xB4CE4DD1DA802FABB3BCA145773E1AE5)Полное имя : C:\PEREGRINE\Dom_strannyh_detei_Miss Peregrine'[email protected]Формат : MatroskaВерсия формата : Version 4 / Version 2Размер файла : 2,91 ГбайтПродолжительность : 2 ч. 6 м.Общий поток : 3284 Кбит/секНазвание фильма : Дом странных детей Мисс Перегрин / Miss Peregrine's Home for Peculiar Children / 2016 [email protected]=-Дата кодирования : UTC 2016-12-07 20:20:54Программа кодирования : mkvmerge v9.6.0 ('Slave To Your Mind') 32bitБиблиотека кодирования : libebml v1.3.4 + libmatroska v1.4.5Attachments : 500.jpg

ВидеоИдентификатор : 1Формат : AVCФормат/Информация : Advanced Video CodecПрофиль формата : [email protected]Параметр CABAC формата : ДаПараметр ReFrames формата : 8 кадровИдентификатор кодека : V_MPEG4/ISO/AVCПродолжительность : 2 ч. 6 м.Битрейт : 2959 Кбит/секШирина : 1280 пикселейВысота : 692 пикселяСоотношение сторон : 1,85:1Режим частоты кадров : ПостоянныйЧастота кадров : 23,976 (24000/1001) кадра/секЦветовое пространство : YUVСубдискретизация насыщенности : 4:2:0Битовая глубина : 8 битТип развёртки : ПрогрессивнаяБит/(Пиксели*Кадры) : 0.139Размер потока : 2,62 Гбайт (90%)Заголовок : Rip by nnlabetikБиблиотека кодирования : x264 core 148 r2744 b97ae06Настройки программы : cabac=1 / ref=8 / deblock=1:-2:-1 / analyse=0x3:0x113 / me=umh / subme=11 / psy=1 / psy_rd=1.00:0.00 / mixed_ref=1 / me_range=32 / chroma_me=1 / trellis=2 / 8x8dct=1 / cqm=0 / deadzone=21,11 / fast_pskip=0 / chroma_qp_offset=-2 / threads=4 / lookahead_threads=1 / sliced_threads=0 / nr=0 / decimate=1 / interlaced=0 / bluray_compat=0 / constrained_intra=0 / bframes=11 / b_pyramid=2 / b_adapt=2 / b_bias=0 / direct=3 / weightb=1 / open_gop=0 / weightp=0 / keyint=240 / keyint_min=23 / scenecut=40 / intra_refresh=0 / rc_lookahead=50 / rc=2pass / mbtree=0 / bitrate=2959 / ratetol=1.0 / qcomp=0.60 / qpmin=0 / qpmax=69 / qpstep=4 / cplxblur=20.0 / qblur=0.5 / vbv_maxrate=50000 / vbv_bufsize=62500 / nal_hrd=none / filler=0 / ip_ratio=1.40 / pb_ratio=1.30 / aq=1:1.00Язык : EnglishDefault : ДаForced : НетЦветовой диапазон : LimitedОсновные цвета : BT.709Характеристики трансфера : BT.709Коэффициенты матрицы : BT.709

Аудио #1Идентификатор : 2Формат : AACФормат/Информация : Advanced Audio CodecПрофиль формата : LCИдентификатор кодека : A_AACПродолжительность : 2 ч. 6 м.Битрейт : 161 Кбит/секКаналы : 2 каналаРасположение каналов : Front: L RЧастота : 48,0 КГцЧастота кадров : 46,875 кадров/сек (1024 spf)Метод сжатия : С потерямиРазмер потока : 146 Мбайт (5%)Язык : RussianDefault : ДаForced : Нет

Аудио #2Идентификатор : 3Формат : AACФормат/Информация : Advanced Audio CodecПрофиль формата : LCИдентификатор кодека : A_AACПродолжительность : 2 ч. 6 м.Битрейт : 161 Кбит/секКаналы : 2 каналаРасположение каналов : Front: L RЧастота : 48,0 КГцЧастота кадров : 46,875 кадров/сек (1024 spf)Метод сжатия : С потерямиРазмер потока : 146 Мбайт (5%)Язык : EnglishDefault : НетForced : Нет

Текст #1Идентификатор : 4Формат : UTF-8Идентификатор кодека : S_TEXT/UTF8Идентификатор кодека/Информация : UTF-8 Plain TextПродолжительность : 1 ч. 58 м.Битрейт : 79 бит/секCount of elements : 1407Размер потока : 69,6 Кбайт (0%)Язык : RussianDefault : НетForced : Нет

Текст #2Идентификатор : 5Формат : UTF-8Идентификатор кодека : S_TEXT/UTF8Идентификатор кодека/Информация : UTF-8 Plain TextПродолжительность : 2 ч. 1 м.Битрейт : 48 бит/секCount of elements : 1570Размер потока : 43,6 Кбайт (0%)Язык : EnglishDefault : НетForced : Нет

Меню00:00:00.000 : en:Chapter 100:03:40.803 : en:Chapter 200:08:38.017 : en:Chapter 300:13:06.827 : en:Chapter 400:15:26.550 : en:Chapter 500:19:47.477 : en:Chapter 600:23:23.652 : en:Chapter 700:27:47.040 : en:Chapter 800:31:06.447 : en:Chapter 900:34:36.783 : en:Chapter 1000:39:34.997 : en:Chapter 1100:42:42.810 : en:Chapter 1200:46:05.637 : en:Chapter 1300:48:36.496 : en:Chapter 1400:54:16.461 : en:Chapter 1500:57:21.479 : en:Chapter 1601:02:03.261 : en:Chapter 1701:08:20.846 : en:Chapter 1801:14:29.006 : en:Chapter 1901:18:54.062 : en:Chapter 2001:24:15.300 : en:Chapter 2101:28:42.442 : en:Chapter 2201:33:11.752 : en:Chapter 2301:36:29.033 : en:Chapter 2401:40:43.787 : en:Chapter 2501:46:09.237 : en:Chapter 2601:53:35.308 : en:Chapter 2702:00:34.393 : en:Chapter 28
</pre>[/spoiler]

Трекер:  [ 07-Дек-2016 23:00 ]

  

Скачать .torrent

Размер .torrent файла 15 KB


Размер: 2.91 GB
Хэш (hash) релиза: b410d8ebb5a7842a6107464877befb3700bebe1e

Еще никто не оставлял запись к записи скачать торрент [VIDEO] Дом странных детей Мисс Перегрин Miss Peregrines Home for Peculiar Children . Будь первым!

!Обратная связь