彼氏不在部 | OpenLoad | 50 Hot Summer Tunes For Your Beachday

Скачать через торрент [VIDEO] Освобождение. Фильм второй. Прорыв бесплатно русская версия torrent активатор

Статистика раздачи
Размер:  1.93 GB   |    Зарегистрирован:  1 год 7 месяцев   |    .torrent скачан:  38 раз   |   
Раздают:  1  
   
загрузка...
 
Автор Сообщение

Galfimbul

avatar Galfimbul



<span class="post-font-serif1">Освобождение. Фильм второй. Прорыв</span>
<span class="post-font-serif1">Год выпуска: 1969
Страна: СССР, Германия (ГДР), Польша, Италия
Жанр: драма, мелодрама, военный
Продолжительность: 01:28:37
Перевод: Не требуется
Cубтитры: русские, английские

Режиссер: Юрий Озеров
Сценарий: Юрий Бондарев, Оскар Курганов, Юрий Озеров
Оператор: Игорь Слабневич
Композитор: Юрий Левитин
Художник: Александр Мягков, Диляра Озерова
Монтаж: Екатерина Карпова

В ролях: Николай Олялин, Лариса Голубкина, Борис Зайденберг, Сергей Никоненко, Михаил Ульянов, Владлен Давыдов, Василий Шукшин, Евгений Буренков, Дмитрий Франько, Юрий Каморный, Бухути Закариадзе, Михаил Ножкин, Иван Переверзев, Владислав Стржельчик, Анатолий Ромашин, Николай Рыбников, Валерий Носик, Владимир Коренев, Эдуард Изотов, Юрий Легков, Всеволод Санаев, Владимир Самойлов, Игорь Озеров, Сергей Харченко, Николай Рушковский, Константин Забелин, Виктор Авдюшко, Владимир Заманский, Клеон Протасов, Александр Афанасьев, Алексей Глазырин, Пётр Глебов, Григорий Михайлов, Пётр Щербаков, Роман Ткачук, Сергей Ляхницкий, Валерий Карен, Виктор Байков, Николай Боголюбов, Владимир Герасимов, Михаил Глузский, Николай Ерёменко (старший), Петр Любешкин, Иван Миколайчук, Лев Прыгунов, Роман Хомятов, Волдемар Акуратерс, Алексей Алексеев, Вадим Грачёв, Юлия Диоши, Юрий Мартынов, Юрий Померанцев, Михаил Постников, Алексей Преснецов, Олев Эскола, Анатолий Кузнецов, Николай Лебедев (II), Лев Поляков, Александр Смирнов, Александр Барушной, Виктор Борцов, Елизавета Алексеева (II), Леонид Довлатов, Николай Симкин, Юрий Дуров, Виктор Шахов, Иосиф (Сосо) Гогичайшвили, В. Вахлин, Владимир Разумовский, Фриц Диц

Описание: Фильм второй — «Прорыв» посвящен битве за Днепр и наступательной операции советских войск в 1944 г. В центре этого фильма судьба батальона, сражавшегося на этом плацдарме.

Качество: BRip | <span class="post-font-serif1">Освобождение / Befreiung / Liberation (1969-1971) {3-Disc Remastered Edition} Blu-ray [Custom] 1080p AVC DD2.0 HDCLUB
Формат: MP4

Видео: AVC (x264), 1280x544 (2.35:1), ~2960 kbps, 24.000 fps, 0.177 bpp
Аудио: Русский, AСC, 48 KHz, 2 ch, 160 kbps

[b]Релиз:

</span></a></span></span></span>
[spoiler="x264 [info]"]
crop(0, 132, -0, -131)
raw [info]: 1280x544p 1:1 @ 24/1 fps (cfr)
x264 [info]: using SAR=1/1
x264 [info]: profile High, level 4.1
x264 [info]: frame I:645 Avg QP:19.87 size: 63825
x264 [info]: frame P:25008 Avg QP:22.51 size: 27613
x264 [info]: frame B:101954 Avg QP:24.14 size: 12120
x264 [info]: consecutive B-frames: 0.9% 2.0% 6.4% 16.1% 14.8% 39.2% 7.5% 4.1% 3.8% 1.2% 1.7% 2.1%
x264 [info]: mb I I16..4: 1.2% 90.3% 8.5%
x264 [info]: mb P I16..4: 0.3% 11.0% 0.7% P16..4: 38.6% 39.2% 8.8% 0.0% 0.0% skip: 1.3%
x264 [info]: mb B I16..4: 0.0% 1.1% 0.1% B16..8: 43.1% 18.7% 2.4% direct: 7.9% skip:26.8% L0:47.0% L1:45.9% BI: 7.1%
x264 [info]: 8x8 transform intra:91.8% inter:69.3%
x264 [info]: direct mvs spatial:99.1% temporal:0.9%
x264 [info]: coded y,uvDC,uvAC intra: 93.1% 37.9% 8.9% inter: 37.8% 20.4% 0.0%
x264 [info]: i16 v,h,dc,p: 16% 20% 4% 60%
x264 [info]: i8 v,h,dc,ddl,ddr,vr,hd,vl,hu: 5% 6% 4% 10% 17% 14% 17% 11% 15%
x264 [info]: i4 v,h,dc,ddl,ddr,vr,hd,vl,hu: 6% 7% 2% 8% 17% 15% 19% 11% 16%
x264 [info]: i8c dc,h,v,p: 54% 26% 11% 9%
x264 [info]: ref P L0: 49.6% 19.1% 10.8% 6.8% 4.8% 4.8% 4.0% 0.0%
x264 [info]: ref B L0: 70.3% 12.0% 7.6% 4.3% 3.2% 1.9% 0.7%
x264 [info]: ref B L1: 93.9% 6.1%
x264 [info]: kb/s:2960.12
encoded 127607 frames, 5.18 fps, 2960.12 kb/s
<pre>
ОбщееУникальный идентификатор : 221846197267403391673840610813141568147 (0xA6E605FFF0728D44B2B3C5506EEBCA93)Полное имя : C:\Osvobojdehie\02\[email protected]Формат : MatroskaВерсия формата : Version 4 / Version 2Размер файла : 1,93 ГбайтПродолжительность : 1 ч. 28 м.Общий поток : 3123 Кбит/секНазвание фильма : Освобождение: Прорыв / 1969 [email protected]=-Дата кодирования : UTC 2016-12-06 04:46:18Программа кодирования : mkvmerge v9.6.0 ('Slave To Your Mind') 32bitБиблиотека кодирования : libebml v1.3.4 + libmatroska v1.4.5Attachments : 501.jpg

ВидеоИдентификатор : 1Формат : AVCФормат/Информация : Advanced Video CodecПрофиль формата : [email protected]Параметр CABAC формата : ДаПараметр ReFrames формата : 8 кадровИдентификатор кодека : V_MPEG4/ISO/AVCПродолжительность : 1 ч. 28 м.Битрейт : 2960 Кбит/секШирина : 1280 пикселейВысота : 544 пикселяСоотношение сторон : 2,35:1Режим частоты кадров : ПостоянныйЧастота кадров : 24,000 кадра/секЦветовое пространство : YUVСубдискретизация насыщенности : 4:2:0Битовая глубина : 8 битТип развёртки : ПрогрессивнаяБит/(Пиксели*Кадры) : 0.177Размер потока : 1,83 Гбайт (95%)Заголовок : Rip by nnlabetikБиблиотека кодирования : x264 core 148 r2744 b97ae06Настройки программы : cabac=1 / ref=8 / deblock=1:-2:-1 / analyse=0x3:0x113 / me=umh / subme=11 / psy=1 / psy_rd=1.00:0.00 / mixed_ref=1 / me_range=32 / chroma_me=1 / trellis=2 / 8x8dct=1 / cqm=0 / deadzone=21,11 / fast_pskip=0 / chroma_qp_offset=-2 / threads=4 / lookahead_threads=1 / sliced_threads=0 / nr=0 / decimate=1 / interlaced=0 / bluray_compat=0 / constrained_intra=0 / bframes=11 / b_pyramid=2 / b_adapt=2 / b_bias=0 / direct=3 / weightb=1 / open_gop=0 / weightp=0 / keyint=230 / keyint_min=23 / scenecut=40 / intra_refresh=0 / rc_lookahead=50 / rc=2pass / mbtree=0 / bitrate=2960 / ratetol=1.0 / qcomp=0.60 / qpmin=0 / qpmax=69 / qpstep=4 / cplxblur=20.0 / qblur=0.5 / vbv_maxrate=50000 / vbv_bufsize=62500 / nal_hrd=none / filler=0 / ip_ratio=1.40 / pb_ratio=1.30 / aq=1:1.00Язык : RussianDefault : ДаForced : НетЦветовой диапазон : LimitedОсновные цвета : BT.709Характеристики трансфера : BT.709Коэффициенты матрицы : BT.709

АудиоИдентификатор : 2Формат : AACФормат/Информация : Advanced Audio CodecПрофиль формата : LCИдентификатор кодека : A_AACПродолжительность : 1 ч. 28 м.Битрейт : 161 Кбит/секКаналы : 2 каналаРасположение каналов : Front: L RЧастота : 48,0 КГцЧастота кадров : 46,875 кадров/сек (1024 spf)Метод сжатия : С потерямиРазмер потока : 102 Мбайт (5%)Язык : RussianDefault : ДаForced : Нет

Текст #1Идентификатор : 3Формат : UTF-8Идентификатор кодека : S_TEXT/UTF8Идентификатор кодека/Информация : UTF-8 Plain TextПродолжительность : 1 ч. 25 м.Битрейт : 65 бит/секCount of elements : 687Размер потока : 40,6 Кбайт (0%)Язык : RussianDefault : НетForced : Нет

Текст #2Идентификатор : 4Формат : UTF-8Идентификатор кодека : S_TEXT/UTF8Идентификатор кодека/Информация : UTF-8 Plain TextПродолжительность : 1 ч. 28 м.Битрейт : 39 бит/секCount of elements : 699Размер потока : 25,6 Кбайт (0%)Язык : EnglishDefault : НетForced : Нет

Меню00:00:00.000 : :Chapter 0100:03:50.916 : :Chapter 0200:12:29.833 : :Chapter 0300:13:50.541 : :Chapter 0400:15:28.291 : :Chapter 0500:22:16.250 : :Chapter 0600:26:43.458 : :Chapter 0700:31:53.833 : :Chapter 0800:35:35.291 : :Chapter 0900:41:29.708 : :Chapter 1000:49:40.583 : :Chapter 1100:58:57.291 : :Chapter 1201:01:03.458 : :Chapter 1301:02:31.375 : :Chapter 1401:05:09.791 : :Chapter 1501:07:22.583 : :Chapter 1601:12:16.958 : :Chapter 1701:22:47.500 : :Chapter 1801:28:28.583 : :Chapter 19
</pre>[/spoiler]

Трекер:  [ 06-Дек-2016 08:00 ]

  

Скачать .torrent

Размер .torrent файла 19 KB


Размер: 1.93 GB
Хэш (hash) релиза: c94a85a0107bc2962c93a97c79bb7bab62b746

Еще никто не оставлял запись к записи скачать торрент [VIDEO] Освобождение. Фильм второй. Прорыв . Будь первым!

!Обратная связь