Unpretty Rapstar Season 3 | Next » | Supernatural - 13ª Temporada Ação / Aventura / Fantasia / Suspense / Terror Idioma: Inglês / Português 2017 MKV Torrent DownloadVídeo 10 / Áudio 10Completa e grátisSinopse: Décima terceira temporada dublada dual áudio 5.1 completa da série. Desde que era pequeno, Sam Winchester (Jared Padalecki) tentava escapar do...

Скачать через торрент музыку Trigun Триган - 1998-2010 г., FLAC бесплатно без регистрации torrent

Статистика раздачи
Размер:  1.48 GB   |    Зарегистрирован:  1 год 7 месяцев   |    .torrent скачан:  22 раза   |   
Раздают:  1  
   
загрузка...
 
Автор Сообщение

Galfimbul

avatar Galfimbul


<span class="post-font-cursive1">ТриганОбщие характеристики:
Производство:
Год выпуска: 1998-2010
Формат: <a href="viewtopic.php?t=48706" class="postLink">FLAC</a>
Частота: 44100Гц
Продолжительность: 90 треков - 4:08:03
Альбомы:</span>
OST
Список треков:
01. No-Beat [3:09]
02. Big Bluff [3:45]
03. Blood and Thunder [3:38]
04. Knives [3:18]
05. Permanent Vacation [1:56]
06. Blue Funk [3:26]
07. Philosophy in a Tea Cup [4:37]
08. Not an Angel [2:57]
09. Cynical Pink [3:47]
10. Sound Life~Lem [5:23]
11. Kaze ha Mirai ni Fuku [3:44]
12. H.T [1:31]
13. Winners [3:33]
14. Never Could Have Been Worse [4:59]
15. Stories to Tell [2:35]
16. People Everyday [2:55]
17. Fool's Paradise [4:08]
18. Yellow Alert [3:06]
19. Carrot & Stick [3:59]
20. Perfect Night [4:36]
OST 2
Список треков:
01. Ravu & Pisu [0:47]
02. Nerve Rack [4:39]
03. Rakuen [5:18]
04. Uesuto. Surangu [3:01]
05. Unhappy Song [2:47]
06. Kuroneko Kuukan [0:26]
07. Colorless Sky [2:13]
08. Toraigan. Makishimamu [2:27]
09. Hash Hash [4:06]
10. Lost Planet [3:57]
11. Blue Spring [0:19]
12. H.T (Destroyingangel Mix) [4:37]
13. Zero Hour [2:40]
14. Insurance #1 [1:56]
15. The Lowdown [2:33]
16. Insurance #2 [2:19]
17. Gunpowder Tea [2:08]
18. Insurance #3 [2:36]
19. Cheers! [2:17]
20. Scattered Rain [5:30]
21. Piasu [3:21]
22. Blue Summers [3:32]
23. Suna no Hoshi [3:23]
OST 3
Список треков:
01. H.T. [1:33]
02. No-Beat [3:10]
03. Big Bluff [3:46]
04. Unhappy Song [2:49]
05. Philosophy in a Tea Cup [4:38]
06. Cynical Pink [3:46]
07. Nerve Rack [4:42]
08. Zero Hour [2:38]
09. Knives [3:17]
10. Permament Vacation [1:56]
11. Blue Funk [3:26]
12. Yellow Alert [3:06]
13. Carot & Stick [3:56]
14. Suna-no-Hoshi [3:27]
15. Kaze-wa Mirai-ni Fuku [3:28]
Movie OST
Список треков:
01. Kaze ga Yan da Toki [0:54]
02. Badlands Rendez-Vous [2:30]
03. Don't Take the Last Donut [1:21]
04. Blank [1:51]
05. Dai Akutou [1:46]
06. Sandsteam [2:39]
07. She is not Sweet [1:35]
08. The Stampede [1:23]
09. Tomakun [3:12]
10. We are in a Jam [1:03]
11. An Unsafe Stamp Maniac [1:13]
12. A Gentle Death [2:13]
13. Empty Smile [1:39]
14. Time to Say Goodbye [0:58]
15. A Grain of Sand in Sandwich [1:25]
16. Dice for Life [1:32]
17. Good Men or Bad? [4:04]
18. Meet me in Macca City [0:55]
19. In the Early Morning Light [1:39]
20. Snatch! Snatch! Snatch! [2:19]
21. You've Blown it Over the Sands [1:55]
22. Ritoruameria [1:58]
23. Akuun [0:59]
24. An Old Public House [2:39]
25. Rakki Sebun [0:42]
26. Get Even [2:29]
27. Parttime SP [1:16]
28. The Grandstand Player [2:18]
29. Termination [0:50]
30. That Was Then [3:05]
31. White Lies [2:25]
32. Lovely Calamities [4:31]
33. H.T. in 'Badlands Rumble' [3:07]

Проверка:
Exact Audio Copy V1.0 beta 3 from 29. August 2011

EAC extraction logfile from 26. March 2012, 23:35

- / Trigun OST

Used drive : PLEXTOR DVDR PX-760A Adapter: 1 ID: 0

Read mode : SecureUtilize accurate stream : YesDefeat audio cache : YesMake use of C2 pointers : No

Read offset correction : 30Overread into Lead-In and Lead-Out : YesFill up missing offset samples with silence : YesDelete leading and trailing silent blocks : NoNull samples used in CRC calculations : YesUsed interface : Native Win32 interface for Win NT & 2000Gap handling : Appended to previous track

Used output format : User Defined EncoderSelected bitrate : 1024 kBit/sQuality : HighAdd ID3 tag : NoCommand line compressor : C:\Program Files (x86)\Exact Audio Copy\Flac\flac.exeAdditional command line options : -V -8 -T "Genre=%genre%" -T "Artist=%artist%" -T "Title=%title%" -T "Album=%albumtitle%" -T "Date=%year%" -T "Tracknumber=%tracknr%" -T "Comment=%comment%" %source%

TOC of the extracted CD

Track | Start | Length | Start sector | End sector --------------------------------------------------------- 1 | 0:00.00 | 3:09.37 | 0 | 14211 2 | 3:09.37 | 3:44.53 | 14212 | 31064 3 | 6:54.15 | 3:38.02 | 31065 | 47416 4 | 10:32.17 | 3:18.18 | 47417 | 62284 5 | 13:50.35 | 1:56.10 | 62285 | 70994 6 | 15:46.45 | 3:26.20 | 70995 | 86464 7 | 19:12.65 | 4:37.22 | 86465 | 107261 8 | 23:50.12 | 2:57.33 | 107262 | 120569 9 | 26:47.45 | 3:46.55 | 120570 | 137574 10 | 30:34.25 | 5:23.22 | 137575 | 161821 11 | 35:57.47 | 3:43.43 | 161822 | 178589 12 | 39:41.15 | 1:31.17 | 178590 | 185431 13 | 41:12.32 | 3:32.55 | 185432 | 201386 14 | 44:45.12 | 4:59.20 | 201387 | 223831 15 | 49:44.32 | 2:34.58 | 223832 | 235439 16 | 52:19.15 | 2:55.12 | 235440 | 248576 17 | 55:14.27 | 4:08.05 | 248577 | 267181 18 | 59:22.32 | 3:05.60 | 267182 | 281116 19 | 62:28.17 | 3:58.73 | 281117 | 299039 20 | 66:27.15 | 4:35.45 | 299040 | 319709

Track 1

Filename C:\RIPs\01 - No-Beat.wav

Pre-gap length 0:00:02.00

Peak level 97.9 % Extraction speed 2.7 X Track quality 100.0 % Test CRC 568A6FF7 Copy CRC 568A6FF7 Accurately ripped (confidence 2) [88E155AB] (AR v1) Copy OK

Track 2

Filename C:\RIPs\02 - Big Bluff.wav

Pre-gap length 0:00:02.14

Peak level 97.9 % Extraction speed 2.7 X Track quality 100.0 % Test CRC D247AB7D Copy CRC D247AB7D Accurately ripped (confidence 2) [02246C6A] (AR v1) Copy OK

Track 3

Filename C:\RIPs\03 - Blood and Thunder.wav

Peak level 97.9 % Extraction speed 2.7 X Track quality 100.0 % Test CRC AD82FC88 Copy CRC AD82FC88 Accurately ripped (confidence 2) [8AF7B42F] (AR v1) Copy OK

Track 4

Filename C:\RIPs\04 - Knives.wav

Pre-gap length 0:00:00.33

Peak level 99.5 % Extraction speed 2.7 X Track quality 100.0 % Test CRC 33361B20 Copy CRC 33361B20 Accurately ripped (confidence 2) [536144F0] (AR v1) Copy OK

Track 5

Filename C:\RIPs\05 - Permanent Vacation.wav

Peak level 97.9 % Extraction speed 2.4 X Track quality 100.0 % Test CRC DBFEB74D Copy CRC DBFEB74D Accurately ripped (confidence 2) [D3E9BDC8] (AR v1) Copy OK

Track 6

Filename C:\RIPs\06 - Blue Funk.wav

Peak level 97.9 % Extraction speed 2.7 X Track quality 100.0 % Test CRC 3AC51922 Copy CRC 3AC51922 Accurately ripped (confidence 2) [ABD58CBF] (AR v1) Copy OK

Track 7

Filename C:\RIPs\07 - Philosophy in a Tea Cup.wav

Pre-gap length 0:00:02.74

Peak level 97.9 % Extraction speed 2.9 X Track quality 100.0 % Test CRC FC818C8B Copy CRC FC818C8B Accurately ripped (confidence 2) [9A220B34] (AR v1) Copy OK

Track 8

Filename C:\RIPs\08 - Not an Angel.wav

Pre-gap length 0:00:03.06

Peak level 97.9 % Extraction speed 2.7 X Track quality 100.0 % Test CRC 2F787BCD Copy CRC 2F787BCD Accurately ripped (confidence 2) [2865A078] (AR v1) Copy OK

Track 9

Filename C:\RIPs\09 - Cynical Pink.wav

Peak level 97.9 % Extraction speed 2.4 X Track quality 99.9 % Test CRC 0526B525 Copy CRC 0526B525 Accurately ripped (confidence 2) [7394DF54] (AR v1) Copy OK

Track 10

Filename C:\RIPs\10 - Sound Life~Lem.wav

Pre-gap length 0:00:02.34

Peak level 87.3 % Extraction speed 2.9 X Track quality 100.0 % Test CRC A8C40F5B Copy CRC A8C40F5B Accurately ripped (confidence 2) [AB202C2C] (AR v1) Copy OK

Track 11

Filename C:\RIPs\11 - Kaze ha Mirai ni Fuku.wav

Pre-gap length 0:00:02.34

Peak level 87.3 % Extraction speed 2.8 X Track quality 100.0 % Test CRC F9A0B030 Copy CRC F9A0B030 Accurately ripped (confidence 2) [4063C2F5] (AR v1) Copy OK

Track 12

Filename C:\RIPs\12 - H.T.wav

Pre-gap length 0:00:03.34

Peak level 97.9 % Extraction speed 2.3 X Track quality 100.0 % Test CRC 832EBEC8 Copy CRC 832EBEC8 Accurately ripped (confidence 2) [474A0C35] (AR v1) Copy OK

Track 13

Filename C:\RIPs\13 - Winners.wav

Pre-gap length 0:00:00.34

Peak level 97.9 % Extraction speed 2.8 X Track quality 100.0 % Test CRC C1C96DF6 Copy CRC C1C96DF6 Accurately ripped (confidence 2) [ED201CED] (AR v1) Copy OK

Track 14

Filename C:\RIPs\14 - Never Could Have Been Worse.wav

Pre-gap length 0:00:01.71

Peak level 97.9 % Extraction speed 2.9 X Track quality 100.0 % Test CRC F326B705 Copy CRC F326B705 Accurately ripped (confidence 2) [6035CC31] (AR v1) Copy OK

Track 15

Filename C:\RIPs\15 - Stories to Tell.wav

Pre-gap length 0:00:03.34

Peak level 97.9 % Extraction speed 2.6 X Track quality 100.0 % Test CRC 84D6E164 Copy CRC 84D6E164 Accurately ripped (confidence 2) [3D7FC942] (AR v1) Copy OK

Track 16

Filename C:\RIPs\16 - People Everyday.wav

Pre-gap length 0:00:00.34

Peak level 97.9 % Extraction speed 2.7 X Track quality 100.0 % Test CRC 91E87936 Copy CRC 91E87936 Accurately ripped (confidence 2) [5F06686E] (AR v1) Copy OK

Track 17

Filename C:\RIPs\17 - Fool's Paradise.wav

Pre-gap length 0:00:02.34

Peak level 97.9 % Extraction speed 2.8 X Track quality 100.0 % Test CRC 79D2689F Copy CRC 79D2689F Accurately ripped (confidence 2) [29C5A531] (AR v1) Copy OK

Track 18

Filename C:\RIPs\18 - Yellow Alert.wav

Pre-gap length 0:00:00.34

Peak level 97.9 % Extraction speed 2.7 X Track quality 100.0 % Test CRC 411F7786 Copy CRC 411F7786 Accurately ripped (confidence 2) [9AAA03C9] (AR v1) Copy OK

Track 19

Filename C:\RIPs\19 - Carrot & Stick.wav

Pre-gap length 0:00:03.34

Peak level 97.9 % Extraction speed 2.8 X Track quality 100.0 % Test CRC 72A8BFB9 Copy CRC 72A8BFB9 Accurately ripped (confidence 2) [E0BF05E6] (AR v1) Copy OK

Track 20

Filename C:\RIPs\20 - Perfect Night.wav

Pre-gap length 0:00:07.34

Peak level 97.9 % Extraction speed 2.9 X Track quality 100.0 % Test CRC 27E3BDA6 Copy CRC 27E3BDA6 Accurately ripped (confidence 2) [9030EEB0] (AR v1) Copy OK

All tracks accurately ripped

No errors occurred

End of status report

---- CUETools DB Plugin V2.1.3

[CTDB TOCID: .TK.VBwmm3BKTVwR4ndp2v88trM-] found, Submit result: .TK.VBwmm3BKTVwR4ndp2v88trM- has been confirmed[5af30ce0] (2/2) Accurately ripped

==== Log checksum 335E221287B7F1F6195498527D750ECA8BB33E9B7F40075CA5EFD7E96ADAE997 ====
-----------------------

DON'T MODIFY THIS FILE

-----------------------

PERFORMER: auCDtect Task Manager, ver. 1.5.1RC6 build 1.5.1.7Copyright (c) 2008-2010 y-soft. All rights reservedhttp://y-soft.org

ANALYZER: auCDtect: CD records authenticity detector, version 0.8.2Copyright (c) 2004 Oleg Berngardt. All rights reserved.Copyright (c) 2004 Alexander Djourik. All rights reserved.

FILE: 16 - People Everyday.flac Size: 18697534 Hash: 83FF3AFDC0239175A64369D302E855B9 Accuracy: -m0 Conclusion: CDDA 100% Signature: 31E52C368C157FDD0FC382FAAD03B77CC8D88741FILE: 15 - Stories to Tell.flac Size: 11810586 Hash: D59935395EC296249BC0F0885D80872A Accuracy: -m0 Conclusion: CDDA 100% Signature: 7A36C0459963131767008C73716D9BF36EE28203FILE: 14 - Never Could Have Been Worse.flac Size: 26745286 Hash: 4757C154C681542FC0900082976230B6 Accuracy: -m0 Conclusion: CDDA 100% Signature: 1FC062385060C6726DC8BBFAB06A8969C40B0FBCFILE: 13 - Winners.flac Size: 23679357 Hash: 39AEDC644E99EE6C6DEA5E72CBAAFB90 Accuracy: -m0 Conclusion: CDDA 100% Signature: 98DCD915D1973E03B0D63CF6A9FADB05C616F40DFILE: 12 - H.T.flac Size: 10844301 Hash: 1D2094E4482B539B3E5CEB6A21A650B7 Accuracy: -m0 Conclusion: CDDA 100% Signature: BA37B8C022FA51B022B4DDE97EF6F067D15D2E73FILE: 11 - Kaze ha Mirai ni Fuku.flac Size: 27449778 Hash: AD22AA9FF3ADF86E2AD202BB629A3883 Accuracy: -m0 Conclusion: CDDA 99% Signature: 14034A6ADF53807A2EB8CF5B63D7F18D7F3F3344FILE: 10 - Sound Life~Lem.flac Size: 37926909 Hash: CF0F097F8271C53FD099FF5286B65426 Accuracy: -m0 Conclusion: CDDA 100% Signature: E6FDA9C30028571AB3D15BE9FB134B04E1D0DFD6FILE: 09 - Cynical Pink.flac Size: 24804327 Hash: 162019A78A767DE9B1627A92FAA9C2D7 Accuracy: -m0 Conclusion: CDDA 100% Signature: 5AAD90F7FC0CE3A31DEDC17E60CB7B0A964A67A6FILE: 08 - Not an Angel.flac Size: 13715893 Hash: 9EC8D9BB7CADC379A0B8A858324E0ACA Accuracy: -m0 Conclusion: CDDA 99% Signature: A56233C418CC75BF5440962789F16568F356D0C3FILE: 07 - Philosophy in a Tea Cup.flac Size: 26160793 Hash: AB507729104303AC28FFBF6CE613793C Accuracy: -m0 Conclusion: CDDA 99% Signature: AE79DFB5881DC6BCF6E14E90A6BB1579B1B19AE2FILE: 06 - Blue Funk.flac Size: 23155914 Hash: FE7B0EC2644398142FD1D9548A8CADD7 Accuracy: -m0 Conclusion: CDDA 100% Signature: 45EDED49FC4495092E5CAF821BCB9DB6BD03C85EFILE: 05 - Permanent Vacation.flac Size: 11516004 Hash: 353D8A33218CC2AEA87E25A2E075EFCC Accuracy: -m0 Conclusion: CDDA 100% Signature: 1264FEFC9761CC0325C3881886A209254CA65110FILE: 04 - Knives.flac Size: 21651922 Hash: 8142AA797FF1E29B13F0C0EAA317D626 Accuracy: -m0 Conclusion: CDDA 100% Signature: C172C13CFB3350F09052B4F4F9C29233E206935AFILE: 03 - Blood and Thunder.flac Size: 24066992 Hash: ADDF8DF311BD57E263F69F16416D7359 Accuracy: -m0 Conclusion: CDDA 100% Signature: 9760C7D5FA50B0781BF6CF834AA4003F96F79CF3FILE: 02 - Big Bluff.flac Size: 22636326 Hash: 47C9B422E4C9E4D2C4CD115B705CD86E Accuracy: -m0 Conclusion: CDDA 100% Signature: 485BC1EF442FACB5A75F04FFD858419440876C0DFILE: 01 - No-Beat.flac Size: 24884840 Hash: C00D1C3EA934EA04B7455EE2AB088841 Accuracy: -m0 Conclusion: CDDA 100% Signature: D8584232648939689F2749A904057C231FEBFFC0FILE: 20 - Perfect Night.flac Size: 26001669 Hash: CF33C5A2215A50F3F61F9A75DBA4BBF9 Accuracy: -m0 Conclusion: CDDA 100% Signature: 9C2B3AD0C7AD56527072466ACA720A5593DB22D4FILE: 19 - Carrot & Stick.flac Size: 23971751 Hash: 77658715529E2DBB6CE766FCB283389B Accuracy: -m0 Conclusion: CDDA 100% Signature: DB420A8CAB3CFEC8D1BFE7449549D210222A2AC4FILE: 18 - Yellow Alert.flac Size: 21116032 Hash: 10838A5D685ADD80AABD8A8A74B3D596 Accuracy: -m0 Conclusion: CDDA 100% Signature: F97DA70F22167C0C9D227804E6E0649BE39E29FCFILE: 17 - Fool's Paradise.flac Size: 25573544 Hash: E4F9D0A83F9612050BCAE544F4EEB5EB Accuracy: -m0 Conclusion: CDDA 100% Signature: C3C54FA072E800F494A394630D3AC7F8B8767F93
Exact Audio Copy V1.0 beta 3 from 29. August 2011

EAC extraction logfile from 27. March 2012, 0:54

- / Trigun OST 2

Used drive : PLEXTOR DVDR PX-760A Adapter: 1 ID: 0

Read mode : SecureUtilize accurate stream : YesDefeat audio cache : YesMake use of C2 pointers : No

Read offset correction : 30Overread into Lead-In and Lead-Out : YesFill up missing offset samples with silence : YesDelete leading and trailing silent blocks : NoNull samples used in CRC calculations : YesUsed interface : Native Win32 interface for Win NT & 2000Gap handling : Appended to previous track

Used output format : User Defined EncoderSelected bitrate : 1024 kBit/sQuality : HighAdd ID3 tag : NoCommand line compressor : C:\Program Files (x86)\Exact Audio Copy\Flac\flac.exeAdditional command line options : -V -8 -T "Genre=%genre%" -T "Artist=%artist%" -T "Title=%title%" -T "Album=%albumtitle%" -T "Date=%year%" -T "Tracknumber=%tracknr%" -T "Comment=%comment%" %source%

TOC of the extracted CD

Track | Start | Length | Start sector | End sector --------------------------------------------------------- 1 | 0:00.00 | 0:46.52 | 0 | 3501 2 | 0:46.52 | 4:39.30 | 3502 | 24456 3 | 5:26.07 | 5:17.55 | 24457 | 48286 4 | 10:43.62 | 3:01.00 | 48287 | 61861 5 | 13:44.62 | 2:47.23 | 61862 | 74409 6 | 16:32.10 | 0:26.30 | 74410 | 76389 7 | 16:58.40 | 2:13.17 | 76390 | 86381 8 | 19:11.57 | 2:27.25 | 86382 | 97431 9 | 21:39.07 | 4:06.20 | 97432 | 115901 10 | 25:45.27 | 3:57.28 | 115902 | 133704 11 | 29:42.55 | 0:19.30 | 133705 | 135159 12 | 30:02.10 | 4:36.62 | 135160 | 155921 13 | 34:38.72 | 2:39.60 | 155922 | 167906 14 | 37:18.57 | 1:56.25 | 167907 | 176631 15 | 39:15.07 | 2:32.65 | 176632 | 188096 16 | 41:47.72 | 2:18.45 | 188097 | 198491 17 | 44:06.42 | 2:07.53 | 198492 | 208069 18 | 46:14.20 | 2:35.42 | 208070 | 219736 19 | 48:49.62 | 2:16.50 | 219737 | 229986 20 | 51:06.37 | 5:30.28 | 229987 | 254764 21 | 56:36.65 | 3:20.67 | 254765 | 269831 22 | 59:57.57 | 3:31.68 | 269832 | 285724 23 | 63:29.50 | 3:23.07 | 285725 | 300956

Track 1

Filename C:\RIPs\01 - Ravu & Pisu.wav

Pre-gap length 0:00:02.00

Peak level 57.5 % Extraction speed 1.8 X Track quality 100.0 % Test CRC 321490B6 Copy CRC 321490B6 Track not present in AccurateRip database Copy OK

Track 2

Filename C:\RIPs\02 - Nerve Rack.wav

Peak level 98.8 % Extraction speed 2.8 X Track quality 100.0 % Test CRC 9B651AD6 Copy CRC 9B651AD6 Track not present in AccurateRip database Copy OK

Track 3

Filename C:\RIPs\03 - Rakuen.wav

Peak level 98.8 % Extraction speed 2.6 X Track quality 99.9 % Test CRC 0FAEDF6B Copy CRC 0FAEDF6B Track not present in AccurateRip database Copy OK

Track 4

Filename C:\RIPs\04 - Uesuto. Surangu.wav

Pre-gap length 0:00:03.71

Peak level 70.9 % Extraction speed 2.7 X Track quality 100.0 % Test CRC 56095338 Copy CRC 56095338 Track not present in AccurateRip database Copy OK

Track 5

Filename C:\RIPs\05 - Unhappy Song.wav

Peak level 98.8 % Extraction speed 2.2 X Track quality 99.9 % Test CRC BE7CD743 Copy CRC BE7CD743 Track not present in AccurateRip database Copy OK

Track 6

Filename C:\RIPs\06 - Kuroneko Kuukan.wav

Peak level 84.5 % Extraction speed 1.3 X Track quality 100.0 % Test CRC 7EA33D45 Copy CRC 7EA33D45 Track not present in AccurateRip database Copy OK

Track 7

Filename C:\RIPs\07 - Colorless Sky.wav

Peak level 98.8 % Extraction speed 2.5 X Track quality 100.0 % Test CRC 0AAE51C3 Copy CRC 0AAE51C3 Track not present in AccurateRip database Copy OK

Track 8

Filename C:\RIPs\08 - Toraigan. Makishimamu.wav

Pre-gap length 0:00:02.69

Peak level 77.0 % Extraction speed 2.5 X Track quality 100.0 % Test CRC BF8F9CFB Copy CRC BF8F9CFB Track not present in AccurateRip database Copy OK

Track 9

Filename C:\RIPs\09 - Hash Hash.wav

Peak level 98.8 % Extraction speed 2.8 X Track quality 100.0 % Test CRC F314808E Copy CRC F314808E Track not present in AccurateRip database Copy OK

Track 10

Filename C:\RIPs\10 - Lost Planet.wav

Pre-gap length 0:00:01.74

Peak level 98.8 % Extraction speed 2.5 X Track quality 99.9 % Test CRC 91A2E96B Copy CRC 91A2E96B Track not present in AccurateRip database Copy OK

Track 11

Filename C:\RIPs\11 - Blue Spring.wav

Pre-gap length 0:00:03.72

Peak level 68.1 % Extraction speed 1.1 X Track quality 100.0 % Test CRC 58179972 Copy CRC 58179972 Track not present in AccurateRip database Copy OK

Track 12

Filename C:\RIPs\12 - H.T (Destroyingangel Mix).wav

Peak level 98.8 % Extraction speed 2.9 X Track quality 100.0 % Test CRC 0B86F4C7 Copy CRC 0B86F4C7 Track not present in AccurateRip database Copy OK

Track 13

Filename C:\RIPs\13 - Zero Hour.wav

Peak level 98.8 % Extraction speed 2.6 X Track quality 100.0 % Test CRC 74990A5D Copy CRC 74990A5D Track not present in AccurateRip database Copy OK

Track 14

Filename C:\RIPs\14 - Insurance #1.wav

Pre-gap length 0:00:02.71

Peak level 73.7 % Extraction speed 2.4 X Track quality 100.0 % Test CRC 1CE39C50 Copy CRC 1CE39C50 Track not present in AccurateRip database Copy OK

Track 15

Filename C:\RIPs\15 - The Lowdown.wav

Peak level 95.2 % Extraction speed 2.6 X Track quality 100.0 % Test CRC 8095562D Copy CRC 8095562D Track not present in AccurateRip database Copy OK

Track 16

Filename C:\RIPs\16 - Insurance #2.wav

Peak level 78.2 % Extraction speed 2.6 X Track quality 100.0 % Test CRC 3BE0274B Copy CRC 3BE0274B Track not present in AccurateRip database Copy OK

Track 17

Filename C:\RIPs\17 - Gunpowder Tea.wav

Peak level 95.5 % Extraction speed 2.5 X Track quality 100.0 % Test CRC DF0D1F49 Copy CRC DF0D1F49 Track not present in AccurateRip database Copy OK

Track 18

Filename C:\RIPs\18 - Insurance #3.wav

Peak level 60.7 % Extraction speed 2.6 X Track quality 100.0 % Test CRC CCC1C9CD Copy CRC CCC1C9CD Track not present in AccurateRip database Copy OK

Track 19

Filename C:\RIPs\19 - Cheers!.wav

Peak level 98.8 % Extraction speed 2.5 X Track quality 100.0 % Test CRC 7E8A7EDC Copy CRC 7E8A7EDC Track not present in AccurateRip database Copy OK

Track 20

Filename C:\RIPs\20 - Scattered Rain.wav

Pre-gap length 0:00:02.71

Peak level 98.8 % Extraction speed 2.9 X Track quality 100.0 % Test CRC 2F1B44DF Copy CRC 2F1B44DF Track not present in AccurateRip database Copy OK

Track 21

Filename C:\RIPs\21 - Piasu.wav

Pre-gap length 0:00:02.74

Peak level 84.0 % Extraction speed 2.7 X Track quality 100.0 % Test CRC A731B10F Copy CRC A731B10F Track not present in AccurateRip database Copy OK

Track 22

Filename C:\RIPs\22 - Blue Summers.wav

Peak level 98.8 % Extraction speed 2.8 X Track quality 100.0 % Test CRC 6B573D83 Copy CRC 6B573D83 Track not present in AccurateRip database Copy OK

Track 23

Filename C:\RIPs\23 - Suna no Hoshi.wav

Pre-gap length 0:00:02.72

Peak level 73.4 % Extraction speed 2.7 X Track quality 100.0 % Test CRC 3B6B6383 Copy CRC 3B6B6383 Track not present in AccurateRip database Copy OK

None of the tracks are present in the AccurateRip database

No errors occurred

End of status report

---- CUETools DB Plugin V2.1.3

[CTDB TOCID: qVII28xji5Xi2pPYJqmHJRl0yjY-] disk not present in database, Submit result: qVII28xji5Xi2pPYJqmHJRl0yjY- has been uploaded

==== Log checksum DD90D74F694F82561C2575B0D05F645BB16A5A41D5DB721FA76C6ED9916E4B44 ====
-----------------------

DON'T MODIFY THIS FILE

-----------------------

PERFORMER: auCDtect Task Manager, ver. 1.5.1RC6 build 1.5.1.7Copyright (c) 2008-2010 y-soft. All rights reservedhttp://y-soft.org

ANALYZER: auCDtect: CD records authenticity detector, version 0.8.2Copyright (c) 2004 Oleg Berngardt. All rights reserved.Copyright (c) 2004 Alexander Djourik. All rights reserved.

FILE: 16 - Insurance #2.flac Size: 7910788 Hash: FE3BCD2FD132D790D904968E8B5EA5F6 Accuracy: -m0 Conclusion: CDDA 100% Signature: 5EEFA553177F01CF2F6C032E1CF0F2C4A5AD2ACBFILE: 15 - The Lowdown.flac Size: 8151176 Hash: 55DE2FC39A02CFD0B255E10CC7A29CE4 Accuracy: -m0 Conclusion: ??? Signature: BD328C15D82CA901891D757E6D50D1DA47AAE51BFILE: 14 - Insurance #1.flac Size: 7685081 Hash: 6807C14C63A1E62308F1B8844A3841DB Accuracy: -m0 Conclusion: CDDA 100% Signature: 92EFA9841EE9B9D6B22BE606FC14DEB5533EF66AFILE: 13 - Zero Hour.flac Size: 16553730 Hash: 423DA16C6B47DAD142581B332EDB011D Accuracy: -m0 Conclusion: CDDA 99% Signature: A6DF6996E87445F711EE37A40D0EB10D6BE38CD6FILE: 12 - H.T (Destroyingangel Mix).flac Size: 31759253 Hash: BA9C69361E506C464623364A422F7DD6 Accuracy: -m0 Conclusion: CDDA 100% Signature: B217CD46D18329DF124F0D389D1D70B372B0DF04FILE: 11 - Blue Spring.flac Size: 1795440 Hash: B7FF7F3C8D5C3F966E31C791504E2811 Accuracy: -m0 Conclusion: CDDA 100% Signature: DF9784465BC1DE0E5998E21ED2C2248108F87B00FILE: 10 - Lost Planet.flac Size: 17981877 Hash: 3C9BFF098EEFFC95AF1A29379C87E548 Accuracy: -m0 Conclusion: CDDA 99% Signature: 806D687D932C45B981EA677831A2959EAA61F9DBFILE: 09 - Hash Hash.flac Size: 26552223 Hash: A817142101C3C2315B811F9520056A58 Accuracy: -m0 Conclusion: CDDA 100% Signature: 0F59D11F105B6BC76127055C26AA6EB561BAB7B0FILE: 08 - Toraigan. Makishimamu.flac Size: 9590238 Hash: C55EC6BF9B00FAC8A761C28CABA2A631 Accuracy: -m0 Conclusion: CDDA 100% Signature: CD0614C0CAA3F5EBA984FEE890D702AA0657A33CFILE: 07 - Colorless Sky.flac Size: 7737708 Hash: B8477AC014F192C9E2E781E4426425E6 Accuracy: -m0 Conclusion: CDDA 86% Signature: 1AC375536E6C979209A4FB3FC6C4DC71E0754B79FILE: 06 - Kuroneko Kuukan.flac Size: 1469315 Hash: 33D1FFD46249B9A9795120B01B9D8910 Accuracy: -m0 Conclusion: CDDA 100% Signature: D15265FA54E2F06742DF5642D32381F3554BB76EFILE: 05 - Unhappy Song.flac Size: 21615070 Hash: 51FBE8107E69B5670DAE55C7EE02A29A Accuracy: -m0 Conclusion: CDDA 100% Signature: A82757815ADB3ED38E53AF92A8C498561E0BD560FILE: 04 - Uesuto. Surangu.flac Size: 14135698 Hash: DB00E42CA280864A059077E26124B94C Accuracy: -m0 Conclusion: CDDA 100% Signature: 88B5D9A5398DB6A04EDC46E4A8FD3E34A891F26AFILE: 03 - Rakuen.flac Size: 27035224 Hash: BB228F671B09B7BED4E49C22443FC958 Accuracy: -m0 Conclusion: CDDA 100% Signature: 3ED0CA809C0F1F1246D8941F743E8214F758E173FILE: 02 - Nerve Rack.flac Size: 34344242 Hash: C64CD7D8B30527B6AE24F8F16AF67009 Accuracy: -m0 Conclusion: CDDA 100% Signature: E1361F79E1DAD81929ECB869260A2BEE1D08144EFILE: 01 - Ravu & Pisu.flac Size: 4104943 Hash: D8F05254856B73BBD3D449A912AB435D Accuracy: -m0 Conclusion: CDDA 100% Signature: 0D578C575CA3EEAEAB0FFD142BE09C70BC270C12FILE: 23 - Suna no Hoshi.flac Size: 12792089 Hash: E9F0E569B02E9C1F33C9B3B205021862 Accuracy: -m0 Conclusion: CDDA 100% Signature: 2DCBCD84E0D227FDED19883182F5BDAB55EA813EFILE: 22 - Blue Summers.flac Size: 17052717 Hash: 13DE94730461664B7FBB659D2D3A6E8B Accuracy: -m0 Conclusion: CDDA 100% Signature: 11CB63FE131EC672285287AA6B92817347853FD0FILE: 21 - Piasu.flac Size: 14120192 Hash: 322909312F7CEE7CC292762B5F22A79F Accuracy: -m0 Conclusion: CDDA 100% Signature: E19963BACE0F21DA126C965E0824846B0D5BAEB6FILE: 20 - Scattered Rain.flac Size: 36496240 Hash: 373F9E96615594172251E44788B79DD4 Accuracy: -m0 Conclusion: CDDA 100% Signature: CD7C022C8AEA26501598B1CC0B0204C04CA26F21FILE: 19 - Cheers!.flac Size: 15498294 Hash: 3D50CF1D608CE31FE319D2A62721E8DC Accuracy: -m0 Conclusion: CDDA 100% Signature: AD982CEB585BFEA122DF376473B28FC8FE621597FILE: 18 - Insurance #3.flac Size: 8497436 Hash: 21B66819EB96B199B8CB481101D19E80 Accuracy: -m0 Conclusion: CDDA 99% Signature: F95785666B5C817E9C54F0CDA0BE54370A4D9CFDFILE: 17 - Gunpowder Tea.flac Size: 9211802 Hash: A5F296F10AD6D3E9E82FB1FB0D4EF19C Accuracy: -m0 Conclusion: ??? Signature: FDB09FE8B54F3DF55E0F8A75C4739BF2C718F8B1
Exact Audio Copy V1.3 from 2. September 2016

EAC extraction logfile from 5. December 2016, 20:49

- / Trigun OST 3

Used drive : PLEXTOR CD-R PREMIUM2 Adapter: 1 ID: 1

Read mode : SecureUtilize accurate stream : YesDefeat audio cache : YesMake use of C2 pointers : No

Read offset correction : 30Overread into Lead-In and Lead-Out : YesFill up missing offset samples with silence : YesDelete leading and trailing silent blocks : NoNull samples used in CRC calculations : YesUsed interface : Native Win32 interface for Win NT & 2000Gap handling : Appended to previous track

Used output format : User Defined EncoderSelected bitrate : 1024 kBit/sQuality : HighAdd ID3 tag : NoCommand line compressor : C:\Program Files (x86)\Exact Audio Copy RIP\Flac\flac.exeAdditional command line options : -V -8 -T "Genre=%genre%" -T "Artist=%artist%" -T "Title=%title%" -T "Album=%albumtitle%" -T "Date=%year%" -T "Tracknumber=%tracknr%" -T "Comment=%comment%" %source%

TOC of the extracted CD

Track | Start | Length | Start sector | End sector --------------------------------------------------------- 1 | 0:00.00 | 1:32.72 | 0 | 6971 2 | 1:32.72 | 3:09.38 | 6972 | 21184 3 | 4:42.35 | 3:46.00 | 21185 | 38134 4 | 8:28.35 | 2:49.00 | 38135 | 50809 5 | 11:17.35 | 4:37.45 | 50810 | 71629 6 | 15:55.05 | 3:46.17 | 71630 | 88596 7 | 19:41.22 | 4:42.05 | 88597 | 109751 8 | 24:23.27 | 2:38.13 | 109752 | 121614 9 | 27:01.40 | 3:17.12 | 121615 | 136401 10 | 30:18.52 | 1:55.73 | 136402 | 145099 11 | 32:14.50 | 3:26.37 | 145100 | 160586 12 | 35:41.12 | 3:05.73 | 160587 | 174534 13 | 38:47.10 | 3:56.07 | 174535 | 192241 14 | 42:43.17 | 3:27.05 | 192242 | 207771 15 | 46:10.22 | 3:27.72 | 207772 | 223368

Track 1

Filename D:\Work\RIPs\01 - H.T..wav

Pre-gap length 0:00:02.00

Peak level 100.0 % Extraction speed 6.2 X Track quality 99.8 % Test CRC 6B9EAD93 Copy CRC 6B9EAD93 Accurately ripped (confidence 1) [4E7EF02C] (AR v2) Copy OK

Track 2

Filename D:\Work\RIPs\02 - No-Beat.wav

Pre-gap length 0:00:01.18

Peak level 100.0 % Extraction speed 9.1 X Track quality 100.0 % Test CRC 615F7868 Copy CRC 615F7868 Accurately ripped (confidence 1) [6F0C18A1] (AR v2) Copy OK

Track 3

Filename D:\Work\RIPs\03 - Big Bluff.wav

Peak level 100.0 % Extraction speed 9.7 X Track quality 100.0 % Test CRC 9267930A Copy CRC 9267930A Accurately ripped (confidence 1) [D460DDC2] (AR v2) Copy OK

Track 4

Filename D:\Work\RIPs\04 - Unhappy Song.wav

Peak level 100.0 % Extraction speed 8.7 X Track quality 99.9 % Test CRC 6F6A9361 Copy CRC 6F6A9361 Accurately ripped (confidence 1) [7C7D0DD9] (AR v2) Copy OK

Track 5

Filename D:\Work\RIPs\05 - Philosophy in a Tea Cup.wav

Pre-gap length 0:00:01.43

Peak level 100.0 % Extraction speed 11.1 X Track quality 100.0 % Test CRC BD23AC50 Copy CRC BD23AC50 Accurately ripped (confidence 1) [F78B70E0] (AR v2) Copy OK

Track 6

Filename D:\Work\RIPs\06 - Cynical Pink.wav

Peak level 100.0 % Extraction speed 11.6 X Track quality 100.0 % Test CRC D0C31A1D Copy CRC D0C31A1D Accurately ripped (confidence 1) [4C60DB68] (AR v2) Copy OK

Track 7

Filename D:\Work\RIPs\07 - Nerve Rack.wav

Peak level 100.0 % Extraction speed 12.5 X Track quality 100.0 % Test CRC AC797323 Copy CRC AC797323 Accurately ripped (confidence 1) [8EDE0EF8] (AR v2) Copy OK

Track 8

Filename D:\Work\RIPs\08 - Zero Hour.wav

Pre-gap length 0:00:02.72

Peak level 100.0 % Extraction speed 12.4 X Track quality 100.0 % Test CRC 786BA5D8 Copy CRC 786BA5D8 Accurately ripped (confidence 1) [43576910] (AR v2) Copy OK

Track 9

Filename D:\Work\RIPs\09 - Knives.wav

Peak level 100.0 % Extraction speed 13.0 X Track quality 100.0 % Test CRC 77D09EA7 Copy CRC 77D09EA7 Accurately ripped (confidence 1) [D3D352D9] (AR v2) Copy OK

Track 10

Filename D:\Work\RIPs\10 - Permament Vacation.wav

Peak level 100.0 % Extraction speed 12.7 X Track quality 100.0 % Test CRC 2582A8EF Copy CRC 2582A8EF Accurately ripped (confidence 1) [25FA8BF0] (AR v2) Copy OK

Track 11

Filename D:\Work\RIPs\11 - Blue Funk.wav

Peak level 100.0 % Extraction speed 11.8 X Track quality 99.9 % Test CRC 78DE9F97 Copy CRC 78DE9F97 Accurately ripped (confidence 1) [D780715A] (AR v2) Copy OK

Track 12

Filename D:\Work\RIPs\12 - Yellow Alert.wav

Peak level 100.0 % Extraction speed 14.0 X Track quality 100.0 % Test CRC 4FE293C4 Copy CRC 4FE293C4 Accurately ripped (confidence 1) [74FBA74F] (AR v2) Copy OK

Track 13

Filename D:\Work\RIPs\13 - Carot & Stick.wav

Pre-gap length 0:00:02.51

Peak level 100.0 % Extraction speed 14.5 X Track quality 100.0 % Test CRC 7603BD7F Copy CRC 7603BD7F Accurately ripped (confidence 1) [DBF88D90] (AR v2) Copy OK

Track 14

Filename D:\Work\RIPs\14 - Suna-no-Hoshi.wav

Pre-gap length 0:00:03.00

Peak level 98.9 % Extraction speed 14.8 X Track quality 100.0 % Test CRC F9F32C5C Copy CRC F9F32C5C Accurately ripped (confidence 1) [C0E94567] (AR v2) Copy OK

Track 15

Filename D:\Work\RIPs\15 - Kaze-wa Mirai-ni Fuku.wav

Pre-gap length 0:00:03.42

Peak level 100.0 % Extraction speed 15.2 X Track quality 100.0 % Test CRC 434D7DBF Copy CRC 434D7DBF Accurately ripped (confidence 1) [B8B9C44A] (AR v2) Copy OK

All tracks accurately ripped

No errors occurred

End of status report

---- CUETools DB Plugin V2.1.6

[CTDB TOCID: zLCJaP374lOjBC9wCFuJR79eAEg-] foundSubmit result: already submittedTrack | CTDB Status 1 | (1/1) Accurately ripped 2 | (1/1) Accurately ripped 3 | (1/1) Accurately ripped 4 | (1/1) Accurately ripped 5 | (1/1) Accurately ripped 6 | (1/1) Accurately ripped 7 | (1/1) Accurately ripped 8 | (1/1) Accurately ripped 9 | (1/1) Accurately ripped 10 | (1/1) Accurately ripped 11 | (1/1) Accurately ripped 12 | (1/1) Accurately ripped 13 | (1/1) Accurately ripped 14 | (1/1) Accurately ripped 15 | (1/1) Accurately ripped

==== Log checksum 5B4FC9F5F35D71035E5830051A124883372E93575F43BCE5EF8CBD932BEA8C39 ====
-----------------------

DON'T MODIFY THIS FILE

-----------------------

PERFORMER: auCDtect Task Manager, ver. 1.6.0 RC1 build 1.6.0.1Copyright (c) 2008-2010 y-soft. All rights reservedhttp://y-soft.org

ANALYZER: auCDtect: CD records authenticity detector, version 0.8.2Copyright (c) 2004 Oleg Berngardt. All rights reserved.Copyright (c) 2004 Alexander Djourik. All rights reserved.

FILE: 09 - Knives.flac Size: 22430286 Hash: 77A5102122E1EE48B0E6167BB4039EC0 Accuracy: -m0 Conclusion: CDDA 99% Signature: CA695011BCBD0C50374263746E49EE986CDF0738FILE: 08 - Zero Hour.flac Size: 16725729 Hash: 920E1B4A8CD51164E4363ED6A2782ADC Accuracy: -m0 Conclusion: CDDA 100% Signature: ED0BBA8B3087E6F95C042DAE28C812B3504C181FFILE: 07 - Nerve Rack.flac Size: 34517180 Hash: 79E85B1E15678236838C9ECA50A1B9A9 Accuracy: -m0 Conclusion: CDDA 100% Signature: 50F136619554B39A0A3F06B1F7B00EB931CF70E8FILE: 06 - Cynical Pink.flac Size: 25423956 Hash: 51B254D6F85755A61E066BC60EACFC69 Accuracy: -m0 Conclusion: CDDA 100% Signature: 8A5B23D27A5F9786906714140F33FE08139785E3FILE: 05 - Philosophy in a Tea Cup.flac Size: 28875836 Hash: F9F37DE81AF9775B806C2DC44059FD8D Accuracy: -m0 Conclusion: CDDA 100% Signature: F668BD2F425A848D8B05968EF121055528F934E4FILE: 04 - Unhappy Song.flac Size: 22383117 Hash: D782C0776C4EF78C48320A56E4781A99 Accuracy: -m0 Conclusion: ??? Signature: C69FCCB6314CF1455A848D91F4EC9F80AD0E3E49FILE: 03 - Big Bluff.flac Size: 23457435 Hash: 03E74784067E5D0F9E10A471238C8126 Accuracy: -m0 Conclusion: CDDA 100% Signature: A1AE5198F5434566BB245FAA3C04675BA91BE6E0FILE: 02 - No-Beat.flac Size: 25361268 Hash: 044211269CAFDC44A56297791272BF9C Accuracy: -m0 Conclusion: CDDA 100% Signature: 1EA6492680D99F4FF9E2AC7671773E138D04C5E0FILE: 01 - H.T..flac Size: 11496762 Hash: 0BA0F1E3F11A2DB3759237CCBEBA44CB Accuracy: -m0 Conclusion: CDDA 100% Signature: C6D99A8AD8B7F07A2303AFEAB47988B7391AB6BCFILE: 15 - Kaze-wa Mirai-ni Fuku.flac Size: 25617539 Hash: 81EC6A7BF80D30B11508BE943B5BDDD7 Accuracy: -m0 Conclusion: CDDA 100% Signature: F943E31818E1E8D9364073FBAA3A4927AEB858FDFILE: 14 - Suna-no-Hoshi.flac Size: 13507265 Hash: 109D32538E4C52CE204978FE7A73C7CA Accuracy: -m0 Conclusion: CDDA 100% Signature: 816ED0AEAB73ED91E7C5C5C7D04879C4077E0FD4FILE: 13 - Carot & Stick.flac Size: 24544636 Hash: 62C770D22E73021F29AE72DBD358281A Accuracy: -m0 Conclusion: CDDA 100% Signature: 5D49382919C4937E59CBEC584CD73A5C317BD0E2FILE: 12 - Yellow Alert.flac Size: 22252386 Hash: 15EC410BE4332B5BB3BC0AB80AB8716B Accuracy: -m0 Conclusion: CDDA 100% Signature: 0371CC005C7E6087526400A8B3B0E330252E3226FILE: 11 - Blue Funk.flac Size: 23641050 Hash: CEBF95097DF3C5ABD591D524B5104251 Accuracy: -m0 Conclusion: CDDA 100% Signature: 8E3F7860A95A81717F6BB678AA6BD389A07B075BFILE: 10 - Permament Vacation.flac Size: 11928927 Hash: BADEA1B6091CD06D6724DEA9A4B21FF7 Accuracy: -m0 Conclusion: CDDA 99% Signature: 5577363E16B7404F2AF5F9574C16ABF2F8E43223
Exact Audio Copy V1.0 beta 3 from 29. August 2011

EAC extraction logfile from 27. March 2012, 3:06

Tsuneo Imahori / Trigun Movie OST

Used drive : PLEXTOR DVDR PX-760A Adapter: 1 ID: 0

Read mode : SecureUtilize accurate stream : YesDefeat audio cache : YesMake use of C2 pointers : No

Read offset correction : 30Overread into Lead-In and Lead-Out : YesFill up missing offset samples with silence : YesDelete leading and trailing silent blocks : NoNull samples used in CRC calculations : YesUsed interface : Native Win32 interface for Win NT & 2000Gap handling : Appended to previous track

Used output format : User Defined EncoderSelected bitrate : 1024 kBit/sQuality : HighAdd ID3 tag : NoCommand line compressor : C:\Program Files (x86)\Exact Audio Copy\Flac\flac.exeAdditional command line options : -V -8 -T "Genre=%genre%" -T "Artist=%artist%" -T "Title=%title%" -T "Album=%albumtitle%" -T "Date=%year%" -T "Tracknumber=%tracknr%" -T "Comment=%comment%" %source%

TOC of the extracted CD

Track | Start | Length | Start sector | End sector --------------------------------------------------------- 1 | 0:00.00 | 0:54.15 | 0 | 4064 2 | 0:54.15 | 2:30.34 | 4065 | 15348 3 | 3:24.49 | 1:20.62 | 15349 | 21410 4 | 4:45.36 | 1:50.50 | 21411 | 29710 5 | 6:36.11 | 1:46.26 | 29711 | 37686 6 | 8:22.37 | 2:39.34 | 37687 | 49645 7 | 11:01.71 | 1:35.25 | 49646 | 56795 8 | 12:37.21 | 1:23.14 | 56796 | 63034 9 | 14:00.35 | 3:11.38 | 63035 | 77397 10 | 17:11.73 | 1:03.06 | 77398 | 82128 11 | 18:15.04 | 1:13.11 | 82129 | 87614 12 | 19:28.15 | 2:12.68 | 87615 | 97582 13 | 21:41.08 | 1:39.04 | 97583 | 105011 14 | 23:20.12 | 0:58.24 | 105012 | 109385 15 | 24:18.36 | 1:25.33 | 109386 | 115793 16 | 25:43.69 | 1:31.42 | 115794 | 122660 17 | 27:15.36 | 4:03.60 | 122661 | 140945 18 | 31:19.21 | 0:54.50 | 140946 | 145045 19 | 32:13.71 | 1:38.57 | 145046 | 152452 20 | 33:52.53 | 2:19.00 | 152453 | 162877 21 | 36:11.53 | 1:54.51 | 162878 | 171478 22 | 38:06.29 | 1:57.66 | 171479 | 180319 23 | 40:04.20 | 0:58.42 | 180320 | 184711 24 | 41:02.62 | 2:38.60 | 184712 | 196621 25 | 43:41.47 | 0:42.05 | 196622 | 199776 26 | 44:23.52 | 2:28.73 | 199777 | 210949 27 | 46:52.50 | 1:16.01 | 210950 | 216650 28 | 48:08.51 | 2:18.08 | 216651 | 227008 29 | 50:26.59 | 0:49.70 | 227009 | 230753 30 | 51:16.54 | 3:04.67 | 230754 | 244620 31 | 54:21.46 | 2:25.36 | 244621 | 255531 32 | 56:47.07 | 4:31.12 | 255532 | 275868 33 | 61:18.19 | 3:06.56 | 275869 | 289874

Track 1

Filename C:\RIPs\01 - Kaze ga Yan da Toki.wav

Pre-gap length 0:00:02.00

Peak level 100.0 % Extraction speed 1.8 X Track quality 100.0 % Test CRC 5E15C7C7 Copy CRC 5E15C7C7 Accurately ripped (confidence 3) [81275C65] (AR v1) Copy OK

Track 2

Filename C:\RIPs\02 - Badlands Rendez-Vous.wav

Pre-gap length 0:00:02.13

Peak level 100.0 % Extraction speed 2.6 X Track quality 100.0 % Test CRC C838951D Copy CRC C838951D Accurately ripped (confidence 3) [C7C6B672] (AR v1) Copy OK

Track 3

Filename C:\RIPs\03 - Don't Take the Last Donut.wav

Peak level 98.8 % Extraction speed 2.2 X Track quality 100.0 % Test CRC 1A548C3B Copy CRC 1A548C3B Accurately ripped (confidence 3) [5F792685] (AR v1) Copy OK

Track 4

Filename C:\RIPs\04 - Blank.wav

Pre-gap length 0:00:02.13

Peak level 100.0 % Extraction speed 2.4 X Track quality 100.0 % Test CRC E0A3BA30 Copy CRC E0A3BA30 Accurately ripped (confidence 3) [7183EE5E] (AR v1) Copy OK

Track 5

Filename C:\RIPs\05 - Dai Akutou.wav

Pre-gap length 0:00:02.13

Peak level 98.8 % Extraction speed 2.4 X Track quality 100.0 % Test CRC 964221F3 Copy CRC 964221F3 Accurately ripped (confidence 3) [6FB9D630] (AR v1) Copy OK

Track 6

Filename C:\RIPs\06 - Sandsteam.wav

Pre-gap length 0:00:02.13

Peak level 100.0 % Extraction speed 2.6 X Track quality 100.0 % Test CRC B5B0470B Copy CRC B5B0470B Accurately ripped (confidence 3) [A6C172CA] (AR v1) Copy OK

Track 7

Filename C:\RIPs\07 - She is not Sweet.wav

Peak level 98.8 % Extraction speed 2.3 X Track quality 100.0 % Test CRC 75ECCE01 Copy CRC 75ECCE01 Accurately ripped (confidence 3) [589AEFAF] (AR v1) Copy OK

Track 8

Filename C:\RIPs\08 - The Stampede.wav

Peak level 98.8 % Extraction speed 2.2 X Track quality 100.0 % Test CRC 1E19132F Copy CRC 1E19132F Accurately ripped (confidence 3) [3D1A5416] (AR v1) Copy OK

Track 9

Filename C:\RIPs\09 - Tomakun.wav

Pre-gap length 0:00:02.13

Peak level 98.8 % Extraction speed 2.7 X Track quality 100.0 % Test CRC AA5D3110 Copy CRC AA5D3110 Accurately ripped (confidence 3) [C0A86A6A] (AR v1) Copy OK

Track 10

Filename C:\RIPs\10 - We are in a Jam.wav

Pre-gap length 0:00:02.13

Peak level 98.8 % Extraction speed 1.4 X Track quality 99.8 % Test CRC 70930D7B Copy CRC 70930D7B Accurately ripped (confidence 3) [DC149457] (AR v1) Copy OK

Track 11

Filename C:\RIPs\11 - An Unsafe Stamp Maniac.wav

Pre-gap length 0:00:02.13

Peak level 98.8 % Extraction speed 2.1 X Track quality 100.0 % Test CRC 09480455 Copy CRC 09480455 Accurately ripped (confidence 3) [084FEE97] (AR v1) Copy OK

Track 12

Filename C:\RIPs\12 - A Gentle Death.wav

Peak level 100.0 % Extraction speed 2.5 X Track quality 100.0 % Test CRC 40552B70 Copy CRC 40552B70 Accurately ripped (confidence 3) [2F365702] (AR v1) Copy OK

Track 13

Filename C:\RIPs\13 - Empty Smile.wav

Pre-gap length 0:00:02.13

Peak level 98.2 % Extraction speed 2.3 X Track quality 100.0 % Test CRC 5D9502BD Copy CRC 5D9502BD Accurately ripped (confidence 3) [3B8AD8F0] (AR v1) Copy OK

Track 14

Filename C:\RIPs\14 - Time to Say Goodbye.wav

Peak level 81.8 % Extraction speed 1.9 X Track quality 100.0 % Test CRC C15B2428 Copy CRC C15B2428 Accurately ripped (confidence 3) [0E0955A7] (AR v1) Copy OK

Track 15

Filename C:\RIPs\15 - A Grain of Sand in Sandwich.wav

Pre-gap length 0:00:02.13

Peak level 100.0 % Extraction speed 2.2 X Track quality 100.0 % Test CRC 7EFA18FB Copy CRC 7EFA18FB Accurately ripped (confidence 3) [8C66CFFB] (AR v1) Copy OK

Track 16

Filename C:\RIPs\16 - Dice for Life.wav

Peak level 98.8 % Extraction speed 2.3 X Track quality 100.0 % Test CRC 329AC26E Copy CRC 329AC26E Accurately ripped (confidence 3) [D3995FD8] (AR v1) Copy OK

Track 17

Filename C:\RIPs\17 - Good Men or Bad.wav

Pre-gap length 0:00:02.13

Peak level 100.0 % Extraction speed 2.8 X Track quality 100.0 % Test CRC 7B596716 Copy CRC 7B596716 Accurately ripped (confidence 3) [53B2A289] (AR v1) Copy OK

Track 18

Filename C:\RIPs\18 - Meet me in Macca City.wav

Pre-gap length 0:00:02.12

Peak level 100.0 % Extraction speed 1.9 X Track quality 100.0 % Test CRC 3DAB0E40 Copy CRC 3DAB0E40 Accurately ripped (confidence 3) [D8F4ECDD] (AR v1) Copy OK

Track 19

Filename C:\RIPs\19 - In the Early Morning Light.wav

Peak level 100.0 % Extraction speed 2.3 X Track quality 100.0 % Test CRC 0776A6BB Copy CRC 0776A6BB Accurately ripped (confidence 3) [2B539DF5] (AR v1) Copy OK

Track 20

Filename C:\RIPs\20 - Snatch! Snatch! Snatch!.wav

Peak level 98.8 % Extraction speed 2.6 X Track quality 100.0 % Test CRC 136486DA Copy CRC 136486DA Accurately ripped (confidence 3) [962D97EB] (AR v1) Copy OK

Track 21

Filename C:\RIPs\21 - You've Blown it Over the Sands.wav

Pre-gap length 0:00:02.13

Peak level 100.0 % Extraction speed 2.4 X Track quality 100.0 % Test CRC 17654D32 Copy CRC 17654D32 Accurately ripped (confidence 3) [69434FF8] (AR v1) Copy OK

Track 22

Filename C:\RIPs\22 - Ritoruameria.wav

Pre-gap length 0:00:02.13

Peak level 89.1 % Extraction speed 2.0 X Track quality 99.9 % Test CRC 9F577DE5 Copy CRC 9F577DE5 Accurately ripped (confidence 3) [FD83C575] (AR v1) Copy OK

Track 23

Filename C:\RIPs\23 - Akuun.wav

Pre-gap length 0:00:02.13

Peak level 97.8 % Extraction speed 2.0 X Track quality 100.0 % Test CRC A754BB0D Copy CRC A754BB0D Accurately ripped (confidence 3) [98059E9A] (AR v1) Copy OK

Track 24

Filename C:\RIPs\24 - An Old Public House.wav

Pre-gap length 0:00:02.13

Peak level 98.8 % Extraction speed 2.6 X Track quality 100.0 % Test CRC E09A0EA0 Copy CRC E09A0EA0 Accurately ripped (confidence 3) [C59DFF86] (AR v1) Copy OK

Track 25

Filename C:\RIPs\25 - Rakki Sebun.wav

Pre-gap length 0:00:02.13

Peak level 100.0 % Extraction speed 1.7 X Track quality 100.0 % Test CRC 7281D080 Copy CRC 7281D080 Accurately ripped (confidence 3) [2C25B32A] (AR v1) Copy OK

Track 26

Filename C:\RIPs\26 - Get Even.wav

Pre-gap length 0:00:02.13

Peak level 98.8 % Extraction speed 2.6 X Track quality 100.0 % Test CRC 560BBD95 Copy CRC 560BBD95 Accurately ripped (confidence 3) [75CA561B] (AR v1) Copy OK

Track 27

Filename C:\RIPs\27 - Parttime SP.wav

Pre-gap length 0:00:02.14

Peak level 100.0 % Extraction speed 1.6 X Track quality 99.8 % Test CRC E784E7AC Copy CRC E784E7AC Accurately ripped (confidence 3) [A44DB5B1] (AR v1) Copy OK

Track 28

Filename C:\RIPs\28 - The Grandstand Player.wav

Peak level 98.8 % Extraction speed 2.1 X Track quality 99.9 % Test CRC 9B4A327F Copy CRC 9B4A327F Accurately ripped (confidence 3) [A7D4BC24] (AR v1) Copy OK

Track 29

Filename C:\RIPs\29 - Termination.wav

Pre-gap length 0:00:02.13

Peak level 80.0 % Extraction speed 1.8 X Track quality 100.0 % Test CRC 81EC3739 Copy CRC 81EC3739 Accurately ripped (confidence 3) [F7D77803] (AR v1) Copy OK

Track 30

Filename C:\RIPs\30 - That Was Then.wav

Pre-gap length 0:00:02.13

Peak level 87.4 % Extraction speed 2.3 X Track quality 99.9 % Test CRC FBE9B6E3 Copy CRC FBE9B6E3 Accurately ripped (confidence 3) [B0419B7B] (AR v1) Copy OK

Track 31

Filename C:\RIPs\31 - White Lies.wav

Peak level 100.0 % Extraction speed 2.6 X Track quality 100.0 % Test CRC 962D2B85 Copy CRC 962D2B85 Accurately ripped (confidence 3) [ECD9092A] (AR v1) Copy OK

Track 32

Filename C:\RIPs\32 - Lovely Calamities.wav

Pre-gap length 0:00:02.13

Peak level 98.8 % Extraction speed 2.9 X Track quality 100.0 % Test CRC 30144819 Copy CRC 30144819 Accurately ripped (confidence 3) [D5CC2BBF] (AR v1) Copy OK

Track 33

Filename C:\RIPs\33 - H.T. in ''Badlands Rumble''.wav

Pre-gap length 0:00:02.13

Peak level 98.8 % Extraction speed 2.3 X Track quality 99.9 % Test CRC 51502516 Copy CRC 51502516 Accurately ripped (confidence 3) [605AD6A5] (AR v1) Copy OK

All tracks accurately ripped

No errors occurred

End of status report

---- CUETools DB Plugin V2.1.3

[CTDB TOCID: yGZLHEb9JAtxbxtqTO2QG1XDoj4-] database access error: Невозможно разрешить удаленное имя: 'db.cuetools.net'

==== Log checksum 99C0734D4E9D04DE2F196F81EFAABB44A1C8504AD628B732886BDD9F0DBFAC15 ====
-----------------------

DON'T MODIFY THIS FILE

-----------------------

PERFORMER: auCDtect Task Manager, ver. 1.5.1RC6 build 1.5.1.7Copyright (c) 2008-2010 y-soft. All rights reservedhttp://y-soft.org

ANALYZER: auCDtect: CD records authenticity detector, version 0.8.2Copyright (c) 2004 Oleg Berngardt. All rights reserved.Copyright (c) 2004 Alexander Djourik. All rights reserved.

FILE: 25 - Rakki Sebun.flac Size: 3405651 Hash: 0F0AF2A61387A3E6055FE5C26B06BED9 Accuracy: -m0 Conclusion: CDDA 100% Signature: 3733BDC0DB59A6C81EF68B79B4E7CA61B06F1B3FFILE: 24 - An Old Public House.flac Size: 12277177 Hash: 9EE9DAF1757482093E06E0611F0B1B0C Accuracy: -m0 Conclusion: CDDA 100% Signature: B7FD9F640753534839B37D9B2D7301A6FC203D90FILE: 23 - Akuun.flac Size: 4766097 Hash: 6D4327BB330165469D467D1C417ABBAF Accuracy: -m0 Conclusion: CDDA 100% Signature: 8B2703434A566F1AF66709D71E3FC1FA74B73E4FFILE: 22 - Ritoruameria.flac Size: 6672363 Hash: A2BD598BF4DE55E240B6E94C7FDF2120 Accuracy: -m0 Conclusion: CDDA 100% Signature: 16AF85423B28EEA49662D45E6F9CCA010CE6BB9DFILE: 21 - You've Blown it Over the Sands.flac Size: 12513421 Hash: FD955864A8F8233588414F254F2AAA97 Accuracy: -m0 Conclusion: CDDA 100% Signature: 03CEAE06DBBF8C97C9539F596C3269E4BAF037D6FILE: 20 - Snatch! Snatch! Snatch!.flac Size: 14893752 Hash: BE9489E80FB6DA40971F95D677B0ABED Accuracy: -m0 Conclusion: CDDA 100% Signature: 5DD5ED42E6AF4B9C6CF3E67FC785E7164B6C85FEFILE: 19 - In the Early Morning Light.flac Size: 6913901 Hash: B5657FD892C6F17640A3378EABD23759 Accuracy: -m0 Conclusion: CDDA 100% Signature: CD1C2894320514EA3ADEF7B5EDBD5A949256D142FILE: 18 - Meet me in Macca City.flac Size: 6174268 Hash: 35ED95C6C011DEED48646FC26DFFE64F Accuracy: -m0 Conclusion: CDDA 99% Signature: 75813BC8D47001A385A7D7F357DAA619D3EFCD6BFILE: 17 - Good Men or Bad.flac Size: 27188081 Hash: EDFBD58E84FEADEF22F2BA6A32D40705 Accuracy: -m0 Conclusion: CDDA 100% Signature: 683993BBE1DC40A22EDF7EC99E14182E2A536BA0FILE: 16 - Dice for Life.flac Size: 10755250 Hash: A7B7E810A8F18CF13C5EE8930B91A564 Accuracy: -m0 Conclusion: CDDA 100% Signature: 259901B886833D21D8D3E7FFABFE13EDDEF761E2FILE: 15 - A Grain of Sand in Sandwich.flac Size: 6617639 Hash: 23F0F190882DD6A15EAB7A9E779A264E Accuracy: -m0 Conclusion: CDDA 100% Signature: 4649A088DBC58D9DB45F6F3C1533FBE7AAA7ABA7FILE: 14 - Time to Say Goodbye.flac Size: 4545869 Hash: C6F6EFB647E8DD2418838F45AA04CE9B Accuracy: -m0 Conclusion: CDDA 100% Signature: A300BA7B279BB4172846CF68191A130EADE95C67FILE: 13 - Empty Smile.flac Size: 6716490 Hash: ECD4D7A954B7F5635049CAAC6A146BB6 Accuracy: -m0 Conclusion: CDDA 100% Signature: 22E917337858DBBC7851D2FE636B01BCD56EDFB9FILE: 12 - A Gentle Death.flac Size: 10429475 Hash: 6B240AA5928319C22FA5DC9B5BE085B6 Accuracy: -m0 Conclusion: CDDA 100% Signature: 4BBA79187347EC486C4517A92E8584CC5522C583FILE: 11 - An Unsafe Stamp Maniac.flac Size: 5346382 Hash: 13296EFE414DF60C46500579C7FC22C4 Accuracy: -m0 Conclusion: CDDA 100% Signature: 0B8EF8B36B9523209644662F8C2F566D72B6F0AAFILE: 10 - We are in a Jam.flac Size: 5857334 Hash: 8A19137329094189BC85AC1D887581D9 Accuracy: -m0 Conclusion: CDDA 99% Signature: EC590AA7830262E0E7A99EF781D0B7C55B3F3882FILE: 09 - Tomakun.flac Size: 18494725 Hash: 25959202DEFAE1E62366529CD8EFBCB3 Accuracy: -m0 Conclusion: CDDA 100% Signature: 7F06DD5CF4BD6D9A55913B31424516E68754A97FFILE: 08 - The Stampede.flac Size: 10230531 Hash: 68CE7CE131B9D1975E26192D1FAA9E0A Accuracy: -m0 Conclusion: CDDA 100% Signature: 2DA28DF32C70A955D16691F34D1303105C236354FILE: 07 - She is not Sweet.flac Size: 10893694 Hash: 4AE0B3F6929FE5B9E1933014B8F41EA6 Accuracy: -m0 Conclusion: CDDA 100% Signature: 27B48EB0839A27AC58854272E5DFC337F2299BF5FILE: 06 - Sandsteam.flac Size: 17997884 Hash: 676D332F7F39750DD102F044996B40C9 Accuracy: -m0 Conclusion: CDDA 100% Signature: 9DF9A5D67579848E5CC0EAED17A161F6B182A2F5FILE: 05 - Dai Akutou.flac Size: 11264434 Hash: 96E3F34C9592512994DC3C3C3E89958A Accuracy: -m0 Conclusion: CDDA 99% Signature: 9CFC191098770D89C4AE757BF99C3006BB9B8866FILE: 04 - Blank.flac Size: 8628472 Hash: BE0C4B707B85D3F99D49776CFA0608A9 Accuracy: -m0 Conclusion: CDDA 99% Signature: 1DB4AA4EFADEE8A1361D662291B296AE9EA1DAD5FILE: 03 - Don't Take the Last Donut.flac Size: 6260245 Hash: 860B996B498730C1DCB43F7AEEADC710 Accuracy: -m0 Conclusion: CDDA 99% Signature: D94602733710D4380A9C1186E3E0F6FBD69737DFFILE: 02 - Badlands Rendez-Vous.flac Size: 16112487 Hash: 6332CA9A310A26A3DF0C996935B45CC0 Accuracy: -m0 Conclusion: CDDA 100% Signature: 633EEBD2B2F94E98365BE3AAED735AC4D5492261FILE: 01 - Kaze ga Yan da Toki.flac Size: 3101832 Hash: AFD27C6A3E82AEDE78D48AB6CF5B4C3A Accuracy: -m0 Conclusion: CDDA 100% Signature: 1B54A412031B98798C7C9F3B468ADEB688C41D0EFILE: 33 - H.T. in ''Badlands Rumble''.flac Size: 24367191 Hash: F60044547A7790CED9ECE728A799E432 Accuracy: -m0 Conclusion: CDDA 100% Signature: 6A484697C1AC179A5BF57B6F751660F768C0FB51FILE: 32 - Lovely Calamities.flac Size: 33660571 Hash: EC3FA8EB188F59B1A96066CCFF35A0AD Accuracy: -m0 Conclusion: CDDA 100% Signature: 4567DBAD3D9CA0F643CFE1EB4C695629C211231DFILE: 31 - White Lies.flac Size: 9693295 Hash: 8A8DFA04B410B1AB2CF0C40546859026 Accuracy: -m0 Conclusion: CDDA 100% Signature: 4389089C3E06B650D4C4BE4896F23D743D3A05D9FILE: 30 - That Was Then.flac Size: 13612387 Hash: 885D7E1ABDDFBF469FC56D01D6F58C92 Accuracy: -m0 Conclusion: CDDA 99% Signature: 38F928AB5E88E224B1AA3D3E479D930FB418A4C1FILE: 29 - Termination.flac Size: 3872231 Hash: E1B2D177BD9969200AC8CAD107BEE5EA Accuracy: -m0 Conclusion: CDDA 99% Signature: 72989D49D18BE963FE54F8B1F722FEB7BB73BF97FILE: 28 - The Grandstand Player.flac Size: 18639872 Hash: 4C276A67909119B1233661F4CCC0DA24 Accuracy: -m0 Conclusion: CDDA 100% Signature: EA03EB9231E6EF0B44584342322B347394BCCF85FILE: 27 - Parttime SP.flac Size: 5735876 Hash: 5F69BE13DD1227BFE361DE2AAA4A03F1 Accuracy: -m0 Conclusion: CDDA 100% Signature: 74ACE205BB047EC179ADE60D4AF08F1E7F927F60FILE: 26 - Get Even.flac Size: 13731740 Hash: 88BB06ADCB2EBA13276C031B2A10C8ED Accuracy: -m0 Conclusion: CDDA 100% Signature: 63E1D7B4ED32FC5C80C6CEF13594F5873C9CA247



Трекер:  [ 05-Дек-2016 20:00 ]

  

Скачать .torrent

Размер .torrent файла 25 KB


Размер: 1.48 GB
Хэш (hash) релиза: 94807787bfff02b9625f46cdfe6471903275bd05

Еще никто не оставлял запись к записи скачать торрент Trigun Триган - 1998-2010 г., FLAC . Будь первым!

!Обратная связь