Thriller | 새끼 E96 180715 360p-NEXT | Announcements

Скачать через торрент [VIDEO] Освобождение: Огненная дуга бесплатно русская версия torrent активатор

Статистика раздачи
Размер:  1.55 GB   |    Зарегистрирован:  1 год 7 месяцев   |    .torrent скачан:  25 раз   |   
Раздают:  1  
   
загрузка...
 
Автор Сообщение

Galfimbul

avatar Galfimbul



<span class="post-font-serif1">Освобождение: Огненная дуга</span>
<span class="post-font-serif1">Год выпуска: 1968
Страна: СССР, Германия (ГДР), Польша, Италия
Жанр: драма, мелодрама, военный
Продолжительность: 01:31:35
Перевод: Не требуется
Cубтитры: русские, английские

Режиссер: Юрий Озеров
Сценарий: Юрий Бондарев, Оскар Курганов, Юрий Озеров
Оператор: Игорь Слабневич, Амина Ахметова, Виталий Абрамов
Композитор: Юрий Левитин
Художник: Александр Мягков, Диляра Озерова
Монтаж: Екатерина Карпова

В ролях: Николай Олялин, Лариса Голубкина, Борис Зайденберг, Сергей Никоненко, Михаил Ульянов, Владлен Давыдов, Василий Шукшин, Евгений Буренков, Дмитрий Франько, Юрий Каморный, Бухути Закариадзе, Михаил Ножкин, Иван Переверзев, Владислав Стржельчик, Анатолий Ромашин, Николай Рыбников, Валерий Носик, Владимир Коренев, Эдуард Изотов, Юрий Легков, Всеволод Санаев, Владимир Самойлов, Игорь Озеров, Сергей Харченко, Николай Рушковский, Константин Забелин, Виктор Авдюшко, Владимир Заманский, Клеон Протасов, Александр Афанасьев, Алексей Глазырин, Пётр Глебов, Григорий Михайлов, Пётр Щербаков, Роман Ткачук, Сергей Ляхницкий, Валерий Карен, Виктор Байков, Николай Боголюбов, Владимир Герасимов, Михаил Глузский, Николай Ерёменко (старший), Петр Любешкин, Иван Миколайчук, Лев Прыгунов, Роман Хомятов, Волдемар Акуратерс, Алексей Алексеев, Вадим Грачёв, Юлия Диоши, Юрий Мартынов, Юрий Померанцев, Михаил Постников, Алексей Преснецов, Олев Эскола, Анатолий Кузнецов, Николай Лебедев (II), Лев Поляков, Александр Смирнов, Александр Барушной, Виктор Борцов, Елизавета Алексеева (II), Леонид Довлатов, Николай Симкин, Юрий Дуров, Виктор Шахов, Иосиф (Сосо) Гогичайшвили, В. Вахлин, Владимир Разумовский, Фриц Диц

Описание: Фильм первый — «Огненная Дуга» повествует о грандиозной битве на Курской дуге летом 1943 года. Здесь произошло самое крупное в истории Второй мировой войны танковое сражение. Наряду с личными судьбами героев в фильме показаны батальные сцены, деятельность штабов и разведок, тех, кто трудился на фронте и в тылу.

Качество: BRip | <span class="post-font-serif1">Освобождение / Befreiung / Liberation (1969-1971) {3-Disc Remastered Edition} Blu-ray [Custom] 1080p AVC DD2.0 HDCLUB
Формат: MP4

Видео: AVC (x264), 1280x544 (2.35:1), ~2260 kbps, 24.000 fps, 0.135 bpp
Аудио: Русский, AСC, 48 KHz, 2 ch, 160 kbps

[b]Релиз:

</span></a></span></span></span>
[spoiler="x264 [info]"]
crop(0, 132, -0, -131)
raw [info]: 1280x544p 1:1 @ 24/1 fps (cfr)
x264 [info]: using SAR=1/1
x264 [info]: profile High, level 4.1
x264 [info]: frame I:668 Avg QP:20.75 size: 55932
x264 [info]: frame P:25461 Avg QP:23.23 size: 23083
x264 [info]: frame B:105733 Avg QP:25.12 size: 8761
x264 [info]: consecutive B-frames: 1.0% 1.9% 5.7% 14.4% 14.5% 40.3% 8.9% 4.6% 4.9% 1.7% 2.2%
x264 [info]: mb I I16..4: 2.3% 89.0% 8.7%
x264 [info]: mb P I16..4: 1.0% 10.8% 0.7% P16..4: 51.8% 23.8% 9.8% 0.0% 0.0% skip: 2.1%
x264 [info]: mb B I16..4: 0.0% 0.5% 0.0% B16..8: 45.5% 8.6% 1.6% direct: 8.3% skip:35.4% L0:48.0% L1:46.5% BI: 5.5%
x264 [info]: 8x8 transform intra:87.1% inter:73.3%
x264 [info]: direct mvs spatial:99.2% temporal:0.8%
x264 [info]: coded y,uvDC,uvAC intra: 84.6% 40.1% 8.7% inter: 30.6% 19.5% 0.2%
x264 [info]: i16 v,h,dc,p: 23% 22% 13% 42%
x264 [info]: i8 v,h,dc,ddl,ddr,vr,hd,vl,hu: 6% 7% 5% 10% 17% 13% 17% 10% 15%
x264 [info]: i4 v,h,dc,ddl,ddr,vr,hd,vl,hu: 6% 7% 2% 9% 16% 14% 18% 10% 16%
x264 [info]: i8c dc,h,v,p: 56% 23% 12% 9%
x264 [info]: ref P L0: 49.0% 19.4% 10.6% 6.9% 4.8% 5.0% 4.1% 0.0%
x264 [info]: ref B L0: 69.8% 12.5% 7.6% 4.3% 3.1% 1.9% 0.7%
x264 [info]: ref B L1: 93.9% 6.1%
x264 [info]: kb/s:2259.01
encoded 131862 frames, 5.47 fps, 2259.01 kb/s
<pre>
ОбщееУникальный идентификатор : 180582584327084343674860381761021206733 (0x87DAF0CF07D666FDBD7823E65E8CE0CD)Полное имя : F:\Maintracker\Освобождение_Огненная дуга 1968\[email protected]Формат : MatroskaВерсия формата : Version 4 / Version 2Размер файла : 1,55 ГбайтПродолжительность : 1 ч. 31 м.Общий поток : 2422 Кбит/секНазвание фильма : Освобождение: Огненная дуга / 1969 [email protected]=-Дата кодирования : UTC 2016-12-04 16:20:04Программа кодирования : mkvmerge v9.6.0 ('Slave To Your Mind') 32bitБиблиотека кодирования : libebml v1.3.4 + libmatroska v1.4.5Attachments : 500.jpg

ВидеоИдентификатор : 1Формат : AVCФормат/Информация : Advanced Video CodecПрофиль формата : [email protected]Параметр CABAC формата : ДаПараметр ReFrames формата : 8 кадровИдентификатор кодека : V_MPEG4/ISO/AVCПродолжительность : 1 ч. 31 м.Битрейт : 2259 Кбит/секШирина : 1280 пикселейВысота : 544 пикселяСоотношение сторон : 2,35:1Режим частоты кадров : ПостоянныйЧастота кадров : 24,000 кадра/секЦветовое пространство : YUVСубдискретизация насыщенности : 4:2:0Битовая глубина : 8 битТип развёртки : ПрогрессивнаяБит/(Пиксели*Кадры) : 0.135Размер потока : 1,44 Гбайт (93%)Заголовок : Rip by nnlabetikБиблиотека кодирования : x264 core 148 r2721 72d53abНастройки программы : cabac=1 / ref=8 / deblock=1:-2:-1 / analyse=0x3:0x113 / me=umh / subme=10 / psy=1 / psy_rd=1.00:0.00 / mixed_ref=1 / me_range=32 / chroma_me=1 / trellis=2 / 8x8dct=1 / cqm=0 / deadzone=21,11 / fast_pskip=0 / chroma_qp_offset=-2 / threads=4 / lookahead_threads=1 / sliced_threads=0 / nr=0 / decimate=1 / interlaced=0 / bluray_compat=0 / constrained_intra=0 / bframes=10 / b_pyramid=2 / b_adapt=2 / b_bias=0 / direct=3 / weightb=1 / open_gop=0 / weightp=0 / keyint=230 / keyint_min=23 / scenecut=40 / intra_refresh=0 / rc_lookahead=40 / rc=2pass / mbtree=0 / bitrate=2259 / ratetol=1.0 / qcomp=0.60 / qpmin=0 / qpmax=69 / qpstep=4 / cplxblur=20.0 / qblur=0.5 / vbv_maxrate=62500 / vbv_bufsize=78125 / nal_hrd=none / filler=0 / ip_ratio=1.40 / pb_ratio=1.30 / aq=1:1.00Язык : RussianDefault : ДаForced : НетЦветовой диапазон : LimitedОсновные цвета : BT.709Характеристики трансфера : BT.709Коэффициенты матрицы : BT.709

АудиоИдентификатор : 2Формат : AACФормат/Информация : Advanced Audio CodecПрофиль формата : LCИдентификатор кодека : A_AACПродолжительность : 1 ч. 31 м.Битрейт : 161 Кбит/секКаналы : 2 каналаРасположение каналов : Front: L RЧастота : 48,0 КГцЧастота кадров : 46,875 кадров/сек (1024 spf)Метод сжатия : С потерямиРазмер потока : 105 Мбайт (7%)Язык : RussianDefault : ДаForced : Нет

Текст #1Идентификатор : 3Формат : UTF-8Идентификатор кодека : S_TEXT/UTF8Идентификатор кодека/Информация : UTF-8 Plain TextПродолжительность : 1 ч. 30 м.Битрейт : 59 бит/секCount of elements : 614Размер потока : 39,1 Кбайт (0%)Язык : RussianDefault : НетForced : Нет

Текст #2Идентификатор : 4Формат : UTF-8Идентификатор кодека : S_TEXT/UTF8Идентификатор кодека/Информация : UTF-8 Plain TextПродолжительность : 1 ч. 31 м.Битрейт : 37 бит/секCount of elements : 676Размер потока : 25,2 Кбайт (0%)Язык : EnglishDefault : НетForced : Нет

Меню00:00:00.000 : :Chapter 0100:00:15.833 : :Chapter 0200:05:35.750 : :Chapter 0300:10:00.833 : :Chapter 0400:12:48.333 : :Chapter 0500:18:26.708 : :Chapter 0600:28:12.541 : :Chapter 0700:30:48.791 : :Chapter 0800:34:34.666 : :Chapter 0900:39:34.666 : :Chapter 1000:51:48.000 : :Chapter 1100:56:36.083 : :Chapter 1200:59:23.000 : :Chapter 1301:02:22.416 : :Chapter 1401:05:10.958 : :Chapter 1501:07:23.000 : :Chapter 1601:23:41.750 : :Chapter 1701:28:31.333 : :Chapter 1801:31:25.291 : :Chapter 19
</pre>[/spoiler]

Трекер:  [ 04-Дек-2016 22:00 ]

  

Скачать .torrent

Размер .torrent файла 16 KB


Размер: 1.55 GB
Хэш (hash) релиза: cb3754e4e1a8994b6b0f468912ed50d9945673ba

Торренты, похожие на [VIDEO] Освобождение: Огненная дуга скачать торрент

Форум Название Автор Размер S L Добавлен
Видео (Фильмы/Клипы) ·· [VIDEO] Освобождение. Фильм первый. Огненная дуга (Юрий Озеров) [1968, драма, мелодрама, военный, BDRip] [MP4, 1280x] Sub Rus, Eng Galfimbul 21441847192 GB 0 0 1481199781

15:23

8-Дек-16

Еще никто не оставлял запись к записи скачать торрент [VIDEO] Освобождение: Огненная дуга . Будь первым!

!Обратная связь