The Voice 8 29 2012 July 9 2012 July 15 zno | Vers un film METROID ? | PAUSE CAFAY #120 | McMafia (2018 - ongoing) RATING 7.7 / 10 QUALITY

Скачать через торрент [VIDEO] Тарзан. Легенда The Legend of Tarzan бесплатно русская версия torrent активатор

Статистика раздачи
Размер:  1.73 GB   |    Зарегистрирован:  1 год 7 месяцев   |    .torrent скачан:  35 раз   |   
Раздают:  1  
   
загрузка...
 
Автор Сообщение

Galfimbul

avatar Galfimbul


Тарзан. Легенда / The Legend of Tarzan
«Human. Nature»
Дата выхода: 27 июня 2016
Оригинальное название: The Legend of Tarzan
Страна: США, Великобритания, Канада
Жанр: боевик, драма, мелодрама, приключения
Возраст: 12+

Режиссер: Дэвид Йейтс / David Yates

В ролях: Александр Скарсгард, Рори Дж. Сапер, Кристоф Вальц, Сэмюэл Л. Джексон, Марго Робби, Ози Икхайл, Менс-Сана Тамакло, Энтони Ачеампонг

Описание: Все истории о Тарзане рассказывают нам одинаковый сюжет о взрослении в джунглях маленького мальчика – выросший в окружении горилл, он постепенно становится могучим воином. Но что произошло потом, когда Джон Клейтон покинул тропический лес и вернулся в Лондон? Под именем лорда Грейстока наш герой мирно живет в британской столице, войдя в высшее общество Англии. Но внезапные обстоятельства заставляют Джона вновь отправиться на Черный континент - пройдя через смертельно опасные приключения, ему предстоит разоблачить коварные планы связанных с продажными политиками злоумышленников.

Продолжительность: 01:49:58
Перевод: Дублированный [Лицензия]
Оригинальная дорожка: нет

Автор рипа:

Качество видео: BDRip Исходник: Blu-Ray Remux (1080p) Формат: mp4
Видео кодек: MPEG-4 AVC Аудио кодек: AAC
Видео: 1280x532 (2.40:1) at 23.976 fps, AVC at 2 113 kbps avg, 0.129 bit/pixel
Аудио №1 Rus: 48.0 KHz, AAC, 2 ch, 128.0 Kbps
Субтитры: русские (Forced)
Навигация по главам: есть
avs [info]: 1280x532p 1:1 @ 24000/1001 fps (cfr)
x264 [info]: using SAR=1/1
x264 [info]: using cpu capabilities: MMX2 SSE2Fast SSSE3 Cache64
x264 [info]: profile High, level 3.1
x264 [info]: frame I:2111 Avg QP:17.27 size: 59208
x264 [info]: frame P:83261 Avg QP:20.25 size: 15702
x264 [info]: frame B:72841 Avg QP:21.90 size: 4269
x264 [info]: consecutive B-frames: 28.4% 31.4% 10.7% 12.5% 10.5% 6.4%
x264 [info]: mb I I16..4: 11.7% 68.3% 20.1%
x264 [info]: mb P I16..4: 1.6% 6.4% 1.3% P16..4: 43.1% 16.4% 10.9% 0.0% 0.0% skip:20.2%
x264 [info]: mb B I16..4: 0.0% 0.3% 0.2% B16..8: 39.2% 4.0% 1.0% direct: 1.7% skip:53.5% L0:40.0% L1:52.9% BI: 7.1%
x264 [info]: 8x8 transform intra:68.2% inter:76.7%
x264 [info]: coded y,uvDC,uvAC intra: 67.0% 64.3% 24.9% inter: 20.7% 22.2% 1.3%
x264 [info]: i16 v,h,dc,p: 23% 16% 6% 55%
x264 [info]: i8 v,h,dc,ddl,ddr,vr,hd,vl,hu: 18% 15% 18% 6% 9% 9% 9% 8% 8%
x264 [info]: i4 v,h,dc,ddl,ddr,vr,hd,vl,hu: 36% 13% 11% 5% 8% 8% 8% 5% 5%
x264 [info]: i8c dc,h,v,p: 57% 19% 19% 5%
x264 [info]: Weighted P-Frames: Y:5.8% UV:1.8%
x264 [info]: ref P L0: 56.2% 13.4% 14.8% 5.7% 4.4% 3.5% 2.0% 0.1%
x264 [info]: ref B L0: 85.1% 8.8% 4.3% 1.6% 0.3%
x264 [info]: ref B L1: 95.5% 4.5%
x264 [info]: kb/s:2113.50
encoded 158213 frames, 3.89 fps, 2113.50 kb/s
GeneralComplete name : D:\Torrents\Download\Tarzan_Legenda_2016_KinoGadget.mp4Format : MPEG-4Format profile : Base MediaCodec ID : isom (isom/avc1/iso6)File size : 1.73 GiBDuration : 1 h 49 minOverall bit rate mode : VariableOverall bit rate : 2 249 kb/sMovie name : Тарзан. Легенда | KinoGadgetPerformer : Дэвид ЙейтсDirector : Дэвид ЙейтсActor : Александр Скарсгард / Рори Дж. Сапер / Кристоф Вальц / Сэмюэл Л. Джексон / Марго Робби / Ози Икхайл / Менс-Сана Тамакло / Энтони АчеампонгScreenplay by : Адам Козад / Крэйг Брюэр / Эдгар Райс БерроузProducer : Дэвид Баррон / Брюс Берман / Скотт ЧерринGenre : Action, Adventure, Drama, RomanceContentType : Short FilmRecorded date : 2016Encoded date : UTC 2016-12-04 00:49:03Tagged date : UTC 2016-12-04 06:39:31Cover : YesContentRating : mpaa|PG-13|300|LongDescription : Приспособившийся к жизни в Лондоне Тарзан возвращается в свой бывший дом, в джунгли, чтобы разобраться в том, что происходит в лагере горнодобывающей компании.HDVideo : Yes

VideoID : 1Format : AVCFormat/Info : Advanced Video CodecFormat profile : [email protected] settings, CABAC : YesFormat settings, ReFrames : 6 framesCodec ID : avc1Codec ID/Info : Advanced Video CodingDuration : 1 h 49 minBit rate : 2 113 kb/sMaximum bit rate : 12.1 Mb/sWidth : 1 280 pixelsHeight : 532 pixelsDisplay aspect ratio : 2.40:1Frame rate mode : ConstantFrame rate : 23.976 (24000/1001) FPSColor space : YUVChroma subsampling : 4:2:0Bit depth : 8 bitsScan type : ProgressiveBits/(Pixel*Frame) : 0.129Stream size : 1.62 GiB (94%)Writing library : x264 core 148 r2638 7599210Encoding settings : cabac=1 / ref=6 / deblock=1:-1:-1 / analyse=0x3:0x113 / me=umh / subme=7 / psy=1 / psy_rd=1.00:0.00 / mixed_ref=1 / me_range=32 / chroma_me=1 / trellis=1 / 8x8dct=1 / cqm=0 / deadzone=21,11 / fast_pskip=1 / chroma_qp_offset=-2 / threads=3 / lookahead_threads=1 / sliced_threads=0 / nr=0 / decimate=1 / interlaced=0 / bluray_compat=0 / constrained_intra=0 / bframes=5 / b_pyramid=2 / b_adapt=1 / b_bias=0 / direct=1 / weightb=1 / open_gop=0 / weightp=2 / keyint=240 / keyint_min=23 / scenecut=40 / intra_refresh=0 / rc_lookahead=60 / rc=crf / mbtree=1 / crf=20.0 / qcomp=0.60 / qpmin=0 / qpmax=69 / qpstep=4 / vbv_maxrate=17500 / vbv_bufsize=17500 / crf_max=0.0 / nal_hrd=none / filler=0 / ip_ratio=1.40 / aq=1:1.00Encoded date : UTC 2016-12-04 00:49:03Tagged date : UTC 2016-12-04 00:50:05

AudioID : 2Format : AACFormat/Info : Advanced Audio CodecFormat profile : LCCodec ID : 40Duration : 1 h 49 minBit rate mode : VariableBit rate : 128 kb/sMaximum bit rate : 135 kb/sChannel(s) : 2 channelsChannel positions : Front: L RSampling rate : 48.0 kHzFrame rate : 46.875 FPS (1024 spf)Compression mode : LossyStream size : 101 MiB (6%)Title : Dub [License]Language : RussianEncoded date : UTC 2016-12-03 13:21:42Tagged date : UTC 2016-12-04 00:50:05

TextID : 3Format : Timed TextCodec ID : tx3gDuration : 1 h 44 minBit rate mode : VariableBit rate : 3 b/sStream size : 2.49 KiB (0%)Title : ForcedLanguage : RussianForced : NoEncoded date : UTC 2016-12-04 00:50:05Tagged date : UTC 2016-12-04 00:50:05

Menu00:00:00.000 : Chapter 0100:10:56.238 : Chapter 0200:20:47.203 : Chapter 0300:28:26.287 : Chapter 0400:40:49.194 : Chapter 0500:51:03.309 : Chapter 0601:01:15.295 : Chapter 0701:10:22.635 : Chapter 0801:20:58.144 : Chapter 0901:29:09.344 : Chapter 1001:42:06.494 : Chapter 1101:49:58.591 : Chapter 12
<a href="tracker.php?rid=39840292" class="postLink"> </a>

Трекер:  [ 04-Дек-2016 10:30 ]

  

Скачать .torrent

Размер .torrent файла 17 KB


Размер: 1.73 GB
Хэш (hash) релиза: 658b173e0b37c9f5fa5a098321766489210ecc72

Еще никто не оставлял запись к записи скачать торрент [VIDEO] Тарзан. Легенда The Legend of Tarzan . Будь первым!

!Обратная связь