Adobe Creative Cloud‎ | Captain America: Winter Soldier, Vol. 1 | [Pantyhosed4U.com] Red - Closing the deal... / 04.07.2018 [2018 г., Solo, Pantyhose, High Heels, 1080p, HDRip]

Скачать через торрент [VIDEO] Бэтмен: Под колпаком Batman: Under the Red Hood бесплатно русская версия torrent активатор

Статистика раздачи
Размер:  938 MB   |    Зарегистрирован:  1 год 7 месяцев   |    .torrent скачан:  16 раз   |   
Раздают:  1  
   
загрузка...
 
Автор Сообщение

Galfimbul

avatar Galfimbul


Бэтмен: Под колпаком / Batman: Under the Red Hood
«Dare To Look Beneath The Hood»
Премьера (мир): 27 июля 2010
Оригинальное название: Batman: Under the Red Hood
Страна: США
Жанр: мультфильм, фантастика, боевик, триллер, криминал
Возраст: 12+

Режиссер: Брэндон Виетти

В ролях: Брюс Гринвуд, Дженсен Эклс, Джон Ди Маджио, Нил Патрик Харрис, Джейсон Айзекс, Уэйд Уильямс, Карлос Алазраки, Роберт Клотуорти, Гэри Коул, Брайан Джордж, Келли Ху, Фил ЛаМарр, Винсент Мартелла

Описание: В Готэме появляется новый смертоносный мститель, называющий себя Красным Колпаком. Он начинает кровавую территориальную войну с криминальным королем города Черной Маской, и Темный Рыцарь быстро понимает, что новичок знает и умеет слишком много для простого преступника…

Продолжительность: 01:15:50
Перевод: Любительский многоголосый
Оригинальная дорожка: нет

Автор рипа:

Качество видео: BDRip Исходник: Blu-Ray Remux (1080p) Формат: mp4
Видео кодек: MPEG-4 AVC Аудио кодек: AAC
Видео: 1280x720 (16:9) at 23.976 fps, AVC at 1 595 kbps avg, 0.072 bit/pixel
Аудио №1 Rus: 48.0 KHz, AAC, 2 ch, 128.0 Kbps
Субтитры: нет
Навигация по главам: нет
avs [info]: 1280x720p 1:1 @ 24000/1001 fps (cfr)
x264 [info]: using SAR=1/1
x264 [info]: using cpu capabilities: MMX2 SSE2Fast SSSE3 Cache64
x264 [info]: profile High, level 3.1
x264 [info]: frame I:1875 Avg QP:13.63 size: 65505
x264 [info]: frame P:49149 Avg QP:18.07 size: 13597
x264 [info]: frame B:58052 Avg QP:18.98 size: 1993
x264 [info]: consecutive B-frames: 28.1% 15.8% 4.0% 5.4% 9.7% 37.0%
x264 [info]: mb I I16..4: 16.8% 55.0% 28.2%
x264 [info]: mb P I16..4: 1.9% 5.2% 1.6% P16..4: 29.0% 10.7% 7.4% 0.0% 0.0% skip:44.2%
x264 [info]: mb B I16..4: 0.1% 0.1% 0.1% B16..8: 20.1% 1.5% 0.4% direct: 0.5% skip:77.3% L0:46.9% L1:51.4% BI: 1.7%
x264 [info]: 8x8 transform intra:58.0% inter:74.1%
x264 [info]: coded y,uvDC,uvAC intra: 42.6% 52.4% 33.4% inter: 8.2% 8.3% 1.5%
x264 [info]: i16 v,h,dc,p: 56% 23% 7% 15%
x264 [info]: i8 v,h,dc,ddl,ddr,vr,hd,vl,hu: 21% 14% 40% 4% 4% 4% 5% 4% 5%
x264 [info]: i4 v,h,dc,ddl,ddr,vr,hd,vl,hu: 29% 19% 20% 6% 6% 6% 6% 5% 4%
x264 [info]: i8c dc,h,v,p: 61% 18% 16% 5%
x264 [info]: Weighted P-Frames: Y:2.2% UV:1.7%
x264 [info]: ref P L0: 58.0% 4.8% 17.4% 8.8% 6.7% 4.3% 0.0%
x264 [info]: ref B L0: 75.8% 16.6% 6.6% 1.0%
x264 [info]: ref B L1: 91.2% 8.8%
x264 [info]: kb/s:1594.63
encoded 109076 frames, 7.29 fps, 1594.63 kb/s
GeneralComplete name : D:\Torrents\Download\Betmen_pod_kolpakom_2010_KinoGadget.mp4Format : MPEG-4Format profile : Base MediaCodec ID : isom (isom/avc1/iso6)File size : 938 MiBDuration : 1 h 15 minOverall bit rate mode : VariableOverall bit rate : 1 729 kb/sMovie name : Бэтмен: Под колпаком | KinoGadgetPerformer : Брэндон ВиеттиDirector : Брэндон ВиеттиActor : Брюс Гринвуд / Дженсен Эклс / Джон Ди Маджио / Нил Патрик Харрис / Джейсон Айзекс / Уэйд Уильямс / Карлос Алазраки / Роберт Клотуорти / Гэри Коул / Брайан Джордж / Келли Ху / Фил ЛаМарр / Винсент МартеллаScreenplay by : Джудд Виник / Боб Кейн / Билл ФингерProducer : Бобби Пейдж / Брюс В. Тимм / Алан БарнеттGenre : Action, Animation, Crime, ThrillerContentType : Short FilmRecorded date : 2010Encoded date : UTC 2016-12-04 05:08:29Tagged date : UTC 2016-12-04 07:09:03Cover : YesContentRating : mpaa|PG-13|300|LongDescription : В Готэме появляется новый смертоносный мститель, называющий себя Красным Колпаком. Он начинает кровавую территориальную войну с криминальным королем города Черной Маской, и Темный Рыцарь быстро понимает, что новичок знает и умеет слишком много для простого преступника…HDVideo : Yes

VideoID : 1Format : AVCFormat/Info : Advanced Video CodecFormat profile : [email protected] settings, CABAC : YesFormat settings, ReFrames : 5 framesCodec ID : avc1Codec ID/Info : Advanced Video CodingDuration : 1 h 15 minBit rate : 1 595 kb/sMaximum bit rate : 19.1 Mb/sWidth : 1 280 pixelsHeight : 720 pixelsDisplay aspect ratio : 16:9Frame rate mode : ConstantFrame rate : 23.976 (24000/1001) FPSColor space : YUVChroma subsampling : 4:2:0Bit depth : 8 bitsScan type : ProgressiveBits/(Pixel*Frame) : 0.072Stream size : 865 MiB (92%)Writing library : x264 core 148 r2638 7599210Encoding settings : cabac=1 / ref=5 / deblock=1:1:1 / analyse=0x3:0x113 / me=umh / subme=7 / psy=1 / psy_rd=1.00:0.00 / mixed_ref=1 / me_range=32 / chroma_me=1 / trellis=1 / 8x8dct=1 / cqm=0 / deadzone=21,11 / fast_pskip=1 / chroma_qp_offset=-2 / threads=3 / lookahead_threads=1 / sliced_threads=0 / nr=0 / decimate=1 / interlaced=0 / bluray_compat=0 / constrained_intra=0 / bframes=5 / b_pyramid=2 / b_adapt=1 / b_bias=0 / direct=1 / weightb=1 / open_gop=0 / weightp=2 / keyint=240 / keyint_min=23 / scenecut=40 / intra_refresh=0 / rc_lookahead=60 / rc=crf / mbtree=1 / crf=19.0 / qcomp=0.60 / qpmin=0 / qpmax=69 / qpstep=4 / vbv_maxrate=17500 / vbv_bufsize=17500 / crf_max=0.0 / nal_hrd=none / filler=0 / ip_ratio=1.40 / aq=1:1.00Encoded date : UTC 2016-12-04 05:08:29Tagged date : UTC 2016-12-04 05:08:53

AudioID : 2Format : AACFormat/Info : Advanced Audio CodecFormat profile : LCCodec ID : 40Duration : 1 h 15 minBit rate mode : VariableBit rate : 128 kb/sMaximum bit rate : 135 kb/sChannel(s) : 2 channelsChannel positions : Front: L RSampling rate : 48.0 kHzFrame rate : 46.875 FPS (1024 spf)Compression mode : LossyStream size : 69.4 MiB (7%)Title : LLanguage : RussianEncoded date : UTC 2016-12-04 00:54:56Tagged date : UTC 2016-12-04 05:08:53
<a href="tracker.php?rid=39840292" class="postLink"> </a>

Трекер:  [ 04-Дек-2016 10:30 ]

  

Скачать .torrent

Размер .torrent файла 18 KB


Размер: 938 MB
Хэш (hash) релиза: a394e39238aceede5c6be807ac90a5aa9dea85b7

Еще никто не оставлял запись к записи скачать торрент [VIDEO] Бэтмен: Под колпаком Batman: Under the Red Hood . Будь первым!

!Обратная связь