Isabella Sermon | Loveless | Tomb Raider 2018 streaming movie

Скачать через торрент [VIDEO] Запрещенный прием Sucker Punch бесплатно русская версия torrent активатор

Статистика раздачи
Размер:  1.97 GB   |    Зарегистрирован:  1 год 7 месяцев   |    .torrent скачан:  27 раз   |   
Раздают:  1  
   
загрузка...
 
Автор Сообщение

Galfimbul

avatar Galfimbul


Запрещенный прием / Sucker Punch
«К такому ты не готов!»
Премьера (РФ): 31 марта 2011
Оригинальное название: Sucker Punch
Страна: США, Канада
Жанр: фэнтези, боевик
Возраст: 12+

Режиссер: Зак Снайдер / Zack Snyder

В ролях: Эмили Браунинг, Эбби Корниш, Джена Мэлоун, Ванесса Энн Хадженс, Джейми Чунг, Карла Гуджино, Джон Хэмм, Оскар Айзек, Скотт Гленн, Вики Ламберт

Описание: Действие развернется в 1950 году. Молодую девушку по настоянию ее злодейского отчима определяют в больницу для душевнобольных. Она выдумывает сказочный мир, где и начинает планировать свой побег — для этого ей нужно раздобыть пять предметов.

Продолжительность: 02:07:30
Перевод: Дублированный (Расширенные места Кубик в кубе)
Оригинальная дорожка: нет

Автор рипа:

Качество видео: BDRip Исходник: Blu-Ray Remux (1080p) Формат: mp4
Видео кодек: MPEG-4 AVC Аудио кодек: AAC
Видео: 1280x532 (2.40:1) at 23.976 fps, AVC at 2 074 kbps avg, 0.127 bit/pixel
Аудио №1 Rus: 48.0 KHz, AAC, 2 ch, 128.0 Kbps
Субтитры: нет
Навигация по главам: нет
Extended Cut - расширенная версия, длиннее театральной на 18 минут! Полный перевод! Расширенные сцены озвучены Кубик в кубе
avs [info]: 1280x532p 1:1 @ 24000/1001 fps (cfr)
x264 [info]: using SAR=1/1
x264 [info]: using cpu capabilities: MMX2 SSE2Fast SSSE3 Cache64
x264 [info]: profile High, level 3.1
x264 [info]: frame I:2853 Avg QP:18.70 size: 48248
x264 [info]: frame P:104195 Avg QP:21.84 size: 14094
x264 [info]: frame B:76384 Avg QP:23.11 size: 4935
x264 [info]: consecutive B-frames: 30.2% 39.6% 12.0% 14.3% 3.4% 0.5%
x264 [info]: mb I I16..4: 9.4% 74.5% 16.1%
x264 [info]: mb P I16..4: 1.2% 6.3% 1.0% P16..4: 44.9% 14.8% 9.9% 0.0% 0.0% skip:22.0%
x264 [info]: mb B I16..4: 0.0% 0.3% 0.1% B16..8: 49.4% 3.9% 0.7% direct: 1.5% skip:44.1% L0:42.1% L1:54.8% BI: 3.1%
x264 [info]: 8x8 transform intra:74.5% inter:78.0%
x264 [info]: coded y,uvDC,uvAC intra: 65.8% 65.9% 32.4% inter: 21.7% 22.6% 1.9%
x264 [info]: i16 v,h,dc,p: 25% 19% 7% 50%
x264 [info]: i8 v,h,dc,ddl,ddr,vr,hd,vl,hu: 18% 13% 25% 6% 8% 8% 8% 7% 7%
x264 [info]: i4 v,h,dc,ddl,ddr,vr,hd,vl,hu: 36% 13% 13% 6% 8% 7% 7% 5% 4%
x264 [info]: i8c dc,h,v,p: 55% 18% 19% 8%
x264 [info]: Weighted P-Frames: Y:4.9% UV:2.8%
x264 [info]: ref P L0: 57.6% 12.5% 15.0% 5.5% 4.2% 3.4% 1.7% 0.1%
x264 [info]: ref B L0: 79.6% 11.8% 5.9% 2.3% 0.5%
x264 [info]: ref B L1: 95.8% 4.2%
x264 [info]: kb/s:2073.75
encoded 183432 frames, 3.45 fps, 2073.75 kb/s
GeneralComplete name : D:\Torrents\Download\Zapreshhennyj_priem_2011_rasshirennaya_versiya_KinoGadget.mp4Format : MPEG-4Format profile : Base MediaCodec ID : isom (isom/avc1/iso6)File size : 1.97 GiBDuration : 2 h 7 minOverall bit rate mode : VariableOverall bit rate : 2 209 kb/sMovie name : Запрещенный прием | KinoGadgetPerformer : Зак СнайдерDirector : Зак СнайдерActor : Эмили Браунинг / Эбби Корниш / Джена Мэлоун / Ванесса Энн Хадженс / Джейми Чунг / Карла Гуджино / Джон Хэмм / Оскар Айзек / Скотт Гленн / Вики ЛамбертScreenplay by : Зак Снайдер / Стив ШибуяProducer : Дебора Снайдер / Зак Снайдер / Уэсли КоллерGenre : ActionContentType : Short FilmRecorded date : 2011Encoded date : UTC 2016-12-03 11:17:19Tagged date : UTC 2016-12-03 12:22:46Cover : YesContentRating : mpaa|PG-13|300|LongDescription : Действие развернется в 1950 году. Молодую девушку по настоянию ее злодейского отчима определяют в больницу для душевнобольных. Она выдумывает сказочный мир, где и начинает планировать свой побег — для этого ей нужно раздобыть пять предметов.HDVideo : Yes

VideoID : 1Format : AVCFormat/Info : Advanced Video CodecFormat profile : [email protected] settings, CABAC : YesFormat settings, ReFrames : 6 framesCodec ID : avc1Codec ID/Info : Advanced Video CodingDuration : 2 h 7 minBit rate : 2 074 kb/sMaximum bit rate : 10.5 Mb/sWidth : 1 280 pixelsHeight : 532 pixelsDisplay aspect ratio : 2.40:1Frame rate mode : ConstantFrame rate : 23.976 (24000/1001) FPSColor space : YUVChroma subsampling : 4:2:0Bit depth : 8 bitsScan type : ProgressiveBits/(Pixel*Frame) : 0.127Stream size : 1.85 GiB (94%)Writing library : x264 core 148 r2638 7599210Encoding settings : cabac=1 / ref=6 / deblock=1:-1:-1 / analyse=0x3:0x113 / me=umh / subme=7 / psy=1 / psy_rd=1.00:0.00 / mixed_ref=1 / me_range=32 / chroma_me=1 / trellis=1 / 8x8dct=1 / cqm=0 / deadzone=21,11 / fast_pskip=1 / chroma_qp_offset=-2 / threads=3 / lookahead_threads=1 / sliced_threads=0 / nr=0 / decimate=1 / interlaced=0 / bluray_compat=0 / constrained_intra=0 / bframes=5 / b_pyramid=2 / b_adapt=1 / b_bias=0 / direct=1 / weightb=1 / open_gop=0 / weightp=2 / keyint=240 / keyint_min=23 / scenecut=40 / intra_refresh=0 / rc_lookahead=60 / rc=crf / mbtree=1 / crf=21.0 / qcomp=0.60 / qpmin=0 / qpmax=69 / qpstep=4 / vbv_maxrate=17500 / vbv_bufsize=17500 / crf_max=0.0 / nal_hrd=none / filler=0 / ip_ratio=1.40 / aq=1:1.00Encoded date : UTC 2016-12-03 11:17:19Tagged date : UTC 2016-12-03 11:19:14

AudioID : 2Format : AACFormat/Info : Advanced Audio CodecFormat profile : LCCodec ID : 40Duration : 2 h 7 minBit rate mode : VariableBit rate : 128 kb/sMaximum bit rate : 135 kb/sChannel(s) : 2 channelsChannel positions : Front: L RSampling rate : 48.0 kHzFrame rate : 46.875 FPS (1024 spf)Compression mode : LossyStream size : 117 MiB (6%)Title : DubLanguage : RussianEncoded date : UTC 2016-12-02 20:26:41Tagged date : UTC 2016-12-03 11:19:14
<a href="tracker.php?rid=39840292" class="postLink"> </a>

Трекер:  [ 03-Дек-2016 16:00 ]

  

Скачать .torrent

Размер .torrent файла 20 KB


Размер: 1.97 GB
Хэш (hash) релиза: 52c74649abef6a7630d2348672920ac30b60a3a2

Еще никто не оставлял запись к записи скачать торрент [VIDEO] Запрещенный прием Sucker Punch . Будь первым!

!Обратная связь