Brian Presley | Torrent Search | Responder

Скачать через торрент [VIDEO] Коллектор бесплатно русская версия torrent активатор

Статистика раздачи
Размер:  1.22 GB   |    Зарегистрирован:  1 год 7 месяцев   |    .torrent скачан:  25 раз   |   
Раздают:  1  
   
загрузка...
 
Автор Сообщение

Galfimbul

avatar Galfimbul


Коллектор
Премьера (РФ): 6 октября 2016
Оригинальное название: Коллектор
Страна: Россия
Жанр: драма, триллер
Возраст: 16+

Режиссер: Алексей Красовский

В ролях: Константин Хабенский, Евгений Стычкин, Ксения Буравская, Полина Агуреева, Кирилл Плетнёв, Валентина Лукащук, Александр Тютин, Игорь Золотовицкий, Никита Тюнин, Татьяна Лазарева

Описание: Артур — мастер своего дела. Работая только с крупными должниками, он находит всю их подноготную и эффективно использует против них. Он никогда не прибегает к банальным методам, его конек — психологическая атака. Артур умеет виртуозно перевоплощаться, сбивать с толку, выводить из равновесия и так допекать своих клиентов, что они готовы вернуть все, только бы никогда больше не слышать его голос. Но однажды Артур сам становится мишенью: в сети появляется скандальное видео с его участием, и от него мгновенно отворачиваются друзья и коллеги. Под угрозой оказывается не только его репутация, но и жизнь… Теперь у коллектора есть всего одна ночь, чтобы найти того, кто загнал его в угол.

Продолжительность: 01:14:18
Перевод: Оригинал (русский)

Автор рипа:

Качество видео: BDRip Исходник: Blu-Ray Remux (1080p) Формат: mp4
Видео кодек: MPEG-4 AVC Аудио кодек: AAC
Видео: 1280x536 (2.40:1) at 23.976 fps, AVC at 2 220 kbps avg, 0.135 bit/pixel
Аудио №1 Rus: 48.0 KHz, AAC, 2 ch, 128.0 Kbps
Субтитры: нет
Навигация по главам: нет
avs [info]: 1280x536p 1:1 @ 24000/1001 fps (cfr)
x264 [info]: using SAR=1/1
x264 [info]: using cpu capabilities: MMX2 SSE2Fast SSSE3 Cache64
x264 [info]: profile High, level 3.1
x264 [info]: frame I:663 Avg QP:16.11 size: 67065
x264 [info]: frame P:66177 Avg QP:19.19 size: 14852
x264 [info]: frame B:40051 Avg QP:19.80 size: 5241
x264 [info]: consecutive B-frames: 32.8% 52.9% 1.7% 4.8% 7.9%
x264 [info]: mb I I16..4: 10.6% 76.7% 12.7%
x264 [info]: mb P I16..4: 0.3% 1.6% 0.1% P16..4: 49.1% 20.4% 14.9% 0.0% 0.0% skip:13.6%
---[Information] [03.12.2016 0:22:49] x264 [info]: mb B I16..4: 0.0% 0.1% 0.0% B16..8: 46.0% 4.6% 0.6% direct: 1.9% skip:46.8% L0:46.0% L1:51.3% BI: 2.7%
x264 [info]: 8x8 transform intra:79.0% inter:76.0%
x264 [info]: coded y,uvDC,uvAC intra: 78.4% 85.4% 61.7% inter: 23.8% 38.9% 7.4%
x264 [info]: i16 v,h,dc,p: 30% 15% 8% 47%
x264 [info]: i8 v,h,dc,ddl,ddr,vr,hd,vl,hu: 16% 10% 38% 5% 7% 6% 6% 6% 6%
x264 [info]: i4 v,h,dc,ddl,ddr,vr,hd,vl,hu: 26% 17% 14% 6% 9% 8% 8% 6% 5%
x264 [info]: i8c dc,h,v,p: 58% 16% 18% 7%
x264 [info]: Weighted P-Frames: Y:1.0% UV:0.2%
x264 [info]: ref P L0: 48.4% 6.7% 18.5% 8.9% 7.7% 6.8% 2.9% 0.0%
x264 [info]: ref B L0: 62.5% 16.9% 13.5% 6.7% 0.4%
x264 [info]: ref B L1: 97.7% 2.3%
x264 [info]: kb/s:2220.09
encoded 106891 frames, 2.46 fps, 2220.09 kb/s
GeneralComplete name : D:\Torrents\Download\Kollektor_2016_KinoGadget.mp4Format : MPEG-4Format profile : Base MediaCodec ID : isom (isom/avc1/iso6)File size : 1.22 GiBDuration : 1 h 14 minOverall bit rate mode : VariableOverall bit rate : 2 356 kb/sMovie name : Коллектор | KinoGadgetPerformer : Алексей КрасовскийDirector : Алексей КрасовскийActor : Константин Хабенский / Евгений Стычкин / Ксения Буравская / Полина Агуреева / Кирилл Плетнёв / Валентина Лукащук / Александр Тютин / Игорь Золотовицкий / Никита Тюнин / Татьяна ЛазареваScreenplay by : Алексей КрасовскийProducer : Георгий Шабанов / Дмитрий Руженцев / Эдуард ИлоянGenre : Drama, ThrillerContentType : Short FilmRecorded date : 2016Encoded date : UTC 2016-12-02 20:22:50Tagged date : UTC 2016-12-03 11:50:42Cover : YesContentRating : mpaa|PG-13|300|LongDescription : Артур — мастер своего дела. Работая только с крупными должниками, он находит всю их подноготную и эффективно использует против них. Он никогда не прибегает к банальным методам, его конек — психологическая атака. Артур умеет виртуозно перевоплощаться, сбивать с толку, выводить из равновесия и так допекать своих клиентов, что они готовы вернуть все, только бы никогда больше не слышать его голос. Но однажды Артур сам становится мишенью: в сети появляется скандальное видео с его участием, и от него мгновенно отворачиваются друзья и коллеги.HDVideo : Yes

VideoID : 1Format : AVCFormat/Info : Advanced Video CodecFormat profile : [email protected]at settings, CABAC : YesFormat settings, ReFrames : 6 framesCodec ID : avc1Codec ID/Info : Advanced Video CodingDuration : 1 h 14 minBit rate : 2 220 kb/sMaximum bit rate : 7 424 kb/sWidth : 1 280 pixelsHeight : 536 pixelsDisplay aspect ratio : 2.40:1Frame rate mode : ConstantFrame rate : 23.976 (24000/1001) FPSColor space : YUVChroma subsampling : 4:2:0Bit depth : 8 bitsScan type : ProgressiveBits/(Pixel*Frame) : 0.135Stream size : 1.15 GiB (94%)Writing library : x264 core 148 r2638 7599210Encoding settings : cabac=1 / ref=6 / deblock=1:-1:-1 / analyse=0x3:0x113 / me=umh / subme=7 / psy=1 / psy_rd=1.00:0.00 / mixed_ref=1 / me_range=32 / chroma_me=1 / trellis=1 / 8x8dct=1 / cqm=0 / deadzone=21,11 / fast_pskip=1 / chroma_qp_offset=-2 / threads=3 / lookahead_threads=1 / sliced_threads=0 / nr=0 / decimate=1 / interlaced=0 / bluray_compat=0 / constrained_intra=0 / bframes=4 / b_pyramid=2 / b_adapt=1 / b_bias=0 / direct=1 / weightb=1 / open_gop=0 / weightp=2 / keyint=240 / keyint_min=23 / scenecut=40 / intra_refresh=0 / rc_lookahead=60 / rc=crf / mbtree=1 / crf=19.0 / qcomp=0.60 / qpmin=0 / qpmax=69 / qpstep=4 / vbv_maxrate=17500 / vbv_bufsize=17500 / crf_max=0.0 / nal_hrd=none / filler=0 / ip_ratio=1.40 / aq=1:1.00Encoded date : UTC 2016-12-02 20:22:50Tagged date : UTC 2016-12-02 20:23:36

AudioID : 2Format : AACFormat/Info : Advanced Audio CodecFormat profile : LCCodec ID : 40Duration : 1 h 14 minBit rate mode : VariableBit rate : 128 kb/sMaximum bit rate : 135 kb/sChannel(s) : 2 channelsChannel positions : Front: L RSampling rate : 48.0 kHzFrame rate : 46.875 FPS (1024 spf)Compression mode : LossyStream size : 68.0 MiB (5%)Title : [Licence]Language : RussianEncoded date : UTC 2016-12-02 08:06:30Tagged date : UTC 2016-12-02 20:23:36
<a href="tracker.php?rid=39840292" class="postLink"> </a>

Трекер:  [ 03-Дек-2016 15:00 ]

  

Скачать .torrent

Размер .torrent файла 12 KB


Размер: 1.22 GB
Хэш (hash) релиза: 668d269010c56eb7d2edc130832ed254fdd1a0bb

Еще никто не оставлял запись к записи скачать торрент [VIDEO] Коллектор . Будь первым!

!Обратная связь