Надина Вриц | Baixar toque para celular | Previous Video

Скачать через торрент [VIDEO] Девушка с татуировкой дракона The Girl with the Dragon Tattoo бесплатно русская версия torrent активатор

Статистика раздачи
Размер:  1.68 GB   |    Зарегистрирован:  1 год 7 месяцев   |    .torrent скачан:  46 раз   |   
Раздают:  1  
   
загрузка...
 
Автор Сообщение

Galfimbul

avatar Galfimbul


Девушка с татуировкой дракона / The Girl with the Dragon Tattoo
«Evil shall with evil be expelled»
Премьера (РФ): 2 января 2012
Оригинальное название: The Girl with the Dragon Tattoo
Страна: США, Швеция, Норвегия
Жанр: триллер, драма, криминал, детектив
Возраст: 18+

Режиссер: Дэвид Финчер / David Fincher

В ролях: Дэниэл Крэйг, Руни Мара, Кристофер Пламмер, Стеллан Скарсгард, Стивен Беркофф, Робин Райт, Йорик ван Вагенинген, Джоэли Ричардсон, Джеральдин Джеймс, Горан Вишнич

Описание: Сорок лет назад Харриет Вангер бесследно пропала на острове, принадлежащем могущественному клану Вангер. Ее тело так и не было найдено, но ее дядя убежден, что это убийство и что убийца является членом его собственной, тесно сплоченной и неблагополучной семьи. Он нанимает опального журналиста Микаэля Блумквиста и татуированную хакершу Лисбет Саландер для проведения расследования.

Продолжительность: 02:38:08
Перевод: Дублированный [Лицензия DVD R5]
Оригинальная дорожка: нет

Автор рипа:

Качество видео: BDRip Исходник: Blu-Ray Remux (1080p) Формат: mp4
Видео кодек: MPEG-4 AVC Аудио кодек: AAC
Видео: 1280x532 (2.40:1) at 23.976 fps, AVC at 1 382 kbps avg, 0.085 bit/pixel
Аудио №1 Rus: 48.0 KHz, AAC, 2 ch, 128.0 Kbps
Субтитры: русские (Forced)
Навигация по главам: есть
avs [info]: 1280x532p 1:1 @ 24000/1001 fps (cfr)
x264 [info]: using SAR=1/1
x264 [info]: using cpu capabilities: MMX2 SSE2Fast SSSE3 Cache64
x264 [info]: profile High, level 4.1
x264 [info]: frame I:2380 Avg QP:13.60 size: 83796
x264 [info]: frame P:41648 Avg QP:16.81 size: 17183
x264 [info]: frame B:183468 Avg QP:18.64 size: 3949
x264 [info]: consecutive B-frames: 1.8% 1.2% 4.8% 9.8% 14.3% 43.8% 7.8% 3.9% 3.0% 1.6% 2.1% 3.3% 2.5%
x264 [info]: mb I I16..4: 9.9% 70.6% 19.5%
x264 [info]: mb P I16..4: 2.3% 7.0% 1.2% P16..4: 45.5% 14.0% 13.6% 0.4% 0.2% skip:15.9%
x264 [info]: mb B I16..4: 0.1% 0.3% 0.0% B16..8: 38.1% 4.1% 0.7% direct: 2.7% skip:54.0% L0:45.2% L1:49.8% BI: 5.0%
x264 [info]: 8x8 transform intra:67.5% inter:63.7%
x264 [info]: direct mvs spatial:100.0% temporal:0.0%
x264 [info]: coded y,uvDC,uvAC intra: 68.9% 75.1% 51.7% inter: 9.3% 15.8% 1.7%
x264 [info]: i16 v,h,dc,p: 32% 29% 9% 31%
x264 [info]: i8 v,h,dc,ddl,ddr,vr,hd,vl,hu: 20% 16% 28% 4% 6% 7% 7% 6% 6%
x264 [info]: i4 v,h,dc,ddl,ddr,vr,hd,vl,hu: 29% 20% 16% 5% 7% 7% 6% 5% 5%
x264 [info]: i8c dc,h,v,p: 51% 20% 22% 7%
x264 [info]: Weighted P-Frames: Y:3.0% UV:1.9%
x264 [info]: ref P L0: 51.5% 7.2% 18.5% 7.0% 5.5% 4.2% 3.7% 2.2% 0.2% 0.0%
x264 [info]: ref B L0: 71.5% 13.6% 7.4% 3.2% 2.5% 1.3% 0.4%
x264 [info]: ref B L1: 90.2% 9.8%
x264 [info]: kb/s:1382.39
encoded 227496 frames, 3.06 fps, 1382.39 kb/s
GeneralComplete name : D:\Torrents\Download\Devushka_s_tatuirovkoj_drakona_2011_KinoGadget.mp4Format : MPEG-4Format profile : Base MediaCodec ID : isom (isom/avc1/iso6)File size : 1.68 GiBDuration : 2 h 38 minOverall bit rate mode : VariableOverall bit rate : 1 518 kb/sMovie name : Девушка с татуировкой дракона | KinoGadgetPerformer : Дэвид ФинчерDirector : Дэвид ФинчерActor : Дэниэл Крэйг / Руни Мара / Кристофер Пламмер / Стеллан Скарсгард / Стивен Беркофф / Робин Райт / Йорик ван Вагенинген / Джоэли Ричардсон / Джеральдин Джеймс / Горан ВишничScreenplay by : Стивен Зеллиан / Стиг ЛарссонProducer : Сиан Чаффин / Скотт Рудин / Сёрен СтемосеGenre : Crime, Drama, MysteryContentType : Short FilmRecorded date : 2011Encoded date : UTC 2016-12-01 06:33:38Tagged date : UTC 2016-12-02 06:45:09Cover : YesContentRating : mpaa|R|400|LongDescription : Сорок лет назад Харриет Вангер бесследно пропала на острове, принадлежащем могущественному клану Вангер. Ее тело так и не было найдено, но ее дядя убежден, что это убийство и что убийца является членом его собственной, тесно сплоченной и неблагополучной семьи. Он нанимает опального журналиста Микаэля Блумквиста и татуированную хакершу Лисбет Саландер для проведения расследования.HDVideo : Yes

VideoID : 1Format : AVCFormat/Info : Advanced Video CodecFormat profile : [email protected] settings, CABAC : YesFormat settings, ReFrames : 8 framesCodec ID : avc1Codec ID/Info : Advanced Video CodingDuration : 2 h 38 minBit rate : 1 382 kb/sMaximum bit rate : 12.1 Mb/sWidth : 1 280 pixelsHeight : 532 pixelsDisplay aspect ratio : 2.40:1Frame rate mode : ConstantFrame rate : 23.976 (24000/1001) FPSColor space : YUVChroma subsampling : 4:2:0Bit depth : 8 bitsScan type : ProgressiveBits/(Pixel*Frame) : 0.085Stream size : 1.53 GiB (91%)Writing library : x264 core 148 r2638 7599210Encoding settings : cabac=1 / ref=8 / deblock=1:-1:-1 / analyse=0x3:0x133 / me=umh / subme=7 / psy=1 / psy_rd=1.00:0.15 / mixed_ref=1 / me_range=24 / chroma_me=1 / trellis=2 / 8x8dct=1 / cqm=0 / deadzone=21,11 / fast_pskip=1 / chroma_qp_offset=-3 / threads=3 / lookahead_threads=1 / sliced_threads=0 / nr=0 / decimate=1 / interlaced=0 / bluray_compat=0 / constrained_intra=0 / bframes=12 / b_pyramid=2 / b_adapt=2 / b_bias=0 / direct=3 / weightb=1 / open_gop=0 / weightp=2 / keyint=240 / keyint_min=23 / scenecut=40 / intra_refresh=0 / rc_lookahead=60 / rc=crf / mbtree=1 / crf=18.0 / qcomp=0.60 / qpmin=0 / qpmax=69 / qpstep=4 / ip_ratio=1.40 / aq=1:1.00Encoded date : UTC 2016-12-01 06:33:38Tagged date : UTC 2016-12-01 06:34:43

AudioID : 2Format : AACFormat/Info : Advanced Audio CodecFormat profile : LCCodec ID : 40Duration : 2 h 38 minBit rate mode : VariableBit rate : 128 kb/sMaximum bit rate : 135 kb/sChannel(s) : 2 channelsChannel positions : Front: L RSampling rate : 48.0 kHzFrame rate : 46.875 FPS (1024 spf)Compression mode : LossyStream size : 145 MiB (8%)Title : DubLanguage : RussianEncoded date : UTC 2016-11-30 09:39:21Tagged date : UTC 2016-12-01 06:34:43

TextID : 3Format : Timed TextCodec ID : tx3gDuration : 1 h 9 minBit rate mode : VariableBit rate : 0 b/sStream size : 223 Bytes (0%)Title : ForcedLanguage : RussianForced : NoEncoded date : UTC 2016-12-01 06:34:43Tagged date : UTC 2016-12-01 06:34:43

Menu00:00:00.000 : 00:00:00.00000:09:53.885 : 00:09:53.88500:22:05.699 : 00:22:05.69900:28:24.786 : 00:28:24.78600:38:09.746 : 00:38:09.74600:48:00.920 : 00:48:00.92000:55:07.346 : 00:55:07.34601:01:06.204 : 01:01:06.20401:09:22.033 : 01:09:22.03301:16:12.860 : 01:16:12.86001:23:27.711 : 01:23:27.71101:32:49.731 : 01:32:49.73101:41:35.006 : 01:41:35.00601:58:54.210 : 01:58:54.21002:14:42.533 : 02:14:42.53302:23:15.837 : 02:23:15.837
<a href="tracker.php?rid=39840292" class="postLink"> </a>

Трекер:  [ 02-Дек-2016 10:00 ]

  

Скачать .torrent

Размер .torrent файла 17 KB


Размер: 1.68 GB
Хэш (hash) релиза: 9ff9a8aa8a0d04440bdae7cf80d10944baa27a03

Еще никто не оставлял запись к записи скачать торрент [VIDEO] Девушка с татуировкой дракона The Girl with the Dragon Tattoo . Будь первым!

!Обратная связь