Demir Kalpli Adam | 2017 | BRRip | XviD | 900 Mb | Türkçe Dublaj | Tek Link | Comenta las últimas películas que viste #357 | Geoffrey Arend

Скачать через торрент [VIDEO] Отряд самоубийц Suicide Squad бесплатно русская версия torrent активатор

Статистика раздачи
Размер:  2.6 GB   |    Зарегистрирован:  1 год 7 месяцев   |    .torrent скачан:  79 раз   |   
Раздают:  1  
   
загрузка...
 
Автор Сообщение

Galfimbul

avatar Galfimbul


Отряд самоубийц / Suicide Squad
«Justice has a bad side»
Премьера (РФ): 4 августа 2016
Оригинальное название: Suicide Squad [Extended Edition]
Страна: США
Жанр: фантастика, фэнтези, боевик, приключения
Возраст: 16+

Режиссер: Дэвид Эйр / David Ayer

В ролях: Марго Робби, Уилл Смит, Джаред Лето, Джай Кортни, Кара Делевинь, Джей Эрнандес, Юэль Киннаман, Виола Дэвис

Описание: После того, как Супермен напоролся на несовместимые с жизнью обстоятельства, в Метро-Сити наступили смутные времена. Налоги, катаклизмы, покемоны, бандитизм и недобор в армию. С последним мириться было нельзя и за дело взялся знающий человек - местный военком с добрым лицом тети Тани из передачи "Спокойной ночи, малыши". Она собрала всех гопников, тунеядцев, бомжей и калек в районе и определила их в добровольный отряд дружинников "Городские хризантемы". Все вместе они вступают в кровавую стычку с бандой древних сущностей из потустороннего астрала, терроризирующих торговые палатки выходцев из солнечного Готэма, а также совершают еще множество глупых подвигов.

Продолжительность: 02:14:32
Перевод: Дублированный (Расширенные места - озвучены одноголосым А.Матвеевым)
Оригинальная дорожка: нет

Автор рипа:

Качество видео: BDRip Исходник: Blu-Ray Remux (1080p) Формат: mp4
Видео кодек: MPEG-4 AVC Аудио кодек: AAC
Видео: 1280x532 (2.40:1) at 23.976 fps, AVC at 2 626 kbps avg, 0.161 bit/pixel
Аудио №1 Rus: 48.0 KHz, AAC, 2 ch, 128.0 Kbps
Субтитры: русские (Forced)
Навигация по главам: есть
Extended Edition - расширенная версия, длиннее театральной на 12 минут! Полный перевод! Расширенные сцены озвучены А.Матвеевым
avs [info]: 1280x532p 1:1 @ 24000/1001 fps (cfr)
x264 [info]: using SAR=1/1
x264 [info]: using cpu capabilities: MMX2 SSE2Fast SSSE3 Cache64
x264 [info]: profile High, level 3.1
x264 [info]: frame I:3235 Avg QP:15.28 size: 62153
x264 [info]: frame P:122659 Avg QP:18.11 size: 16638
x264 [info]: frame B:67661 Avg QP:19.78 size: 6031
x264 [info]: consecutive B-frames: 41.9% 33.2% 9.2% 6.9% 8.8%
x264 [info]: mb I I16..4: 7.8% 77.7% 14.5%
x264 [info]: mb P I16..4: 0.8% 4.5% 1.0% P16..4: 45.8% 20.4% 14.1% 0.0% 0.0% skip:13.4%
x264 [info]: mb B I16..4: 0.0% 0.2% 0.1% B16..8: 51.2% 6.7% 1.3% direct: 2.1% skip:38.3% L0:43.8% L1:51.2% BI: 5.0%
x264 [info]: 8x8 transform intra:73.0% inter:76.1%
x264 [info]: coded y,uvDC,uvAC intra: 77.6% 77.3% 46.8% inter: 29.1% 25.0% 2.0%
x264 [info]: i16 v,h,dc,p: 21% 12% 9% 58%
x264 [info]: i8 v,h,dc,ddl,ddr,vr,hd,vl,hu: 18% 12% 25% 6% 8% 8% 8% 7% 8%
x264 [info]: i4 v,h,dc,ddl,ddr,vr,hd,vl,hu: 33% 14% 15% 6% 8% 7% 7% 5% 5%
x264 [info]: i8c dc,h,v,p: 53% 19% 20% 8%
x264 [info]: Weighted P-Frames: Y:6.3% UV:3.9%
x264 [info]: ref P L0: 53.7% 9.0% 17.2% 7.3% 5.5% 4.5% 2.6% 0.1%
x264 [info]: ref B L0: 69.7% 16.2% 9.8% 3.7% 0.6%
x264 [info]: ref B L1: 93.7% 6.3%
x264 [info]: kb/s:2626.00
encoded 193555 frames, 4.18 fps, 2626.00 kb/s
GeneralComplete name : D:\Torrents\Download\Otryad_samoubijc_2016_rasshirennaya_versiya_KinoGadget.mp4Format : MPEG-4Format profile : Base MediaCodec ID : isom (isom/avc1/iso6)File size : 2.60 GiBDuration : 2 h 14 minOverall bit rate mode : VariableOverall bit rate : 2 761 kb/sMovie name : Отряд самоубийц [Расширенная версия] | KinoGadgetPerformer : Дэвид ЭйрDirector : Дэвид ЭйрActor : Марго Робби / Уилл Смит / Джаред Лето / Джай Кортни / Кара Делевинь / Джей Эрнандес / Юэль Киннаман / Виола ДэвисScreenplay by : Дэвид Эйр / Джон ОстрандерProducer : Брюс Франклин / Энди Хорвитц / Джефф ДжонсGenre : Action, AdventureContentType : Short FilmRecorded date : 2016Encoded date : UTC 2016-12-02 05:13:32Tagged date : UTC 2016-12-02 06:09:17Cover : YesContentRating : mpaa|PG-13|300|LongDescription : После того, как Супермен напоролся на несовместимые с жизнью обстоятельства, в Метро-Сити наступили смутные времена. Налоги, катаклизмы, покемоны, бандитизм и недобор в армию. С последним мириться было нельзя и за дело взялся знающий человек - местный военком с добрым лицом тети Тани из передачи "Спокойной ночи, малыши". Она собрала всех гопников, тунеядцев, бомжей и калек в районе и определила их в добровольный отряд дружинников "Городские хризантемы".HDVideo : Yes

VideoID : 1Format : AVCFormat/Info : Advanced Video CodecFormat profile : [email protected] settings, CABAC : YesFormat settings, ReFrames : 6 framesCodec ID : avc1Codec ID/Info : Advanced Video CodingDuration : 2 h 14 minBit rate : 2 626 kb/sMaximum bit rate : 15.6 Mb/sWidth : 1 280 pixelsHeight : 532 pixelsDisplay aspect ratio : 2.40:1Frame rate mode : ConstantFrame rate : 23.976 (24000/1001) FPSColor space : YUVChroma subsampling : 4:2:0Bit depth : 8 bitsScan type : ProgressiveBits/(Pixel*Frame) : 0.161Stream size : 2.47 GiB (95%)Writing library : x264 core 148 r2638 7599210Encoding settings : cabac=1 / ref=6 / deblock=1:-1:-1 / analyse=0x3:0x113 / me=umh / subme=7 / psy=1 / psy_rd=1.00:0.00 / mixed_ref=1 / me_range=32 / chroma_me=1 / trellis=1 / 8x8dct=1 / cqm=0 / deadzone=21,11 / fast_pskip=1 / chroma_qp_offset=-2 / threads=3 / lookahead_threads=1 / sliced_threads=0 / nr=0 / decimate=1 / interlaced=0 / bluray_compat=0 / constrained_intra=0 / bframes=4 / b_pyramid=2 / b_adapt=1 / b_bias=0 / direct=1 / weightb=1 / open_gop=0 / weightp=2 / keyint=240 / keyint_min=23 / scenecut=40 / intra_refresh=0 / rc_lookahead=60 / rc=crf / mbtree=1 / crf=18.0 / qcomp=0.60 / qpmin=0 / qpmax=69 / qpstep=4 / vbv_maxrate=17500 / vbv_bufsize=17500 / crf_max=0.0 / nal_hrd=none / filler=0 / ip_ratio=1.40 / aq=1:1.00Encoded date : UTC 2016-12-02 05:13:32Tagged date : UTC 2016-12-02 05:15:15

AudioID : 2Format : AACFormat/Info : Advanced Audio CodecFormat profile : LCCodec ID : 40Duration : 2 h 14 minBit rate mode : VariableBit rate : 128 kb/sMaximum bit rate : 135 kb/sChannel(s) : 2 channelsChannel positions : Front: L RSampling rate : 48.0 kHzFrame rate : 46.875 FPS (1024 spf)Compression mode : LossyStream size : 123 MiB (5%)Title : DubLanguage : RussianEncoded date : UTC 2016-12-01 16:09:26Tagged date : UTC 2016-12-02 05:15:15

TextID : 3Format : Timed TextCodec ID : tx3gDuration : 2 h 6 minBit rate mode : VariableBit rate : 9 b/sStream size : 8.01 KiB (0%)Title : ForcedLanguage : RussianForced : NoEncoded date : UTC 2016-12-02 05:15:15Tagged date : UTC 2016-12-02 05:15:15

Menu00:00:00.000 : 00:00:00.00000:09:08.506 : 00:09:08.50600:20:22.972 : 00:20:22.97200:31:14.706 : 00:31:14.70600:41:04.879 : 00:41:04.87900:52:21.805 : 00:52:21.80501:04:48.843 : 01:04:48.84301:21:12.743 : 01:21:12.74301:32:11.943 : 01:32:11.94301:42:57.671 : 01:42:57.67101:50:58.652 : 01:50:58.65202:04:04.812 : 02:04:04.812
<a href="tracker.php?rid=39840292" class="postLink"> </a>

Трекер:  [ 02-Дек-2016 09:30 ]

  

Скачать .torrent

Размер .torrent файла 13 KB


Размер: 2.6 GB
Хэш (hash) релиза: ea85a77d778a1aba795bd5b3b718cd6388168336

Еще никто не оставлял запись к записи скачать торрент [VIDEO] Отряд самоубийц Suicide Squad . Будь первым!

!Обратная связь