Aplicativo APKPure | James Gleason | 83. Camelphat Ft Elderbrook Cola mp3

Скачать через торрент [VIDEO] Пит и его дракон Petes Dragon бесплатно русская версия torrent активатор

Статистика раздачи
Размер:  1.59 GB   |    Зарегистрирован:  1 год 7 месяцев   |    .torrent скачан:  37 раз   |   
Раздают:  1  
   
загрузка...
 
Автор Сообщение

Galfimbul

avatar Galfimbul


Пит и его дракон / Pete's Dragon
«Some secrets are too big to keep»
Премьера (РФ): 11 августа 2016
Оригинальное название: Pete's Dragon
Страна: США
Жанр: фэнтези, приключения, семейный
Возраст: 6+

Режиссер: Дэвид Лоури / David Lowery

В ролях: Брайс Даллас Ховард, Роберт Редфорд, Оакс Фигли, Уна Лоуренс, Уэс Бентли, Карл Урбан, Исайя Уитлок мл., Маркус Хендерсон, Аарон Джексон, Филип Грив

Описание: В течение многих лет Мистер Мичем забавлял местных детишек сказочными историями о свирепом драконе, обитающим на севере, глубоко в лесах. Для его дочери Грейс все эти истории казались ничем иным как выдумкой, ровно до тех пор, пока она не встретила в лесу маленького мальчика по имени Пит. Пит уже долгое время живет в диком лесу, у него нет ни дома, ни семьи, зато есть замечательный друг — огромный зеленый дракон Эллиот. Грейс решает разгадать историю юного Пита, узнать всю правду о его семье и загадочном драконе, о котором ходит так много слухов и легенд.

Продолжительность: 01:42:45
Перевод: Дублированный [Лицензия]
Оригинальная дорожка: нет

Автор рипа:

Качество видео: BDRip Исходник: Blu-Ray (1080p) Формат: mp4
Видео кодек: MPEG-4 AVC Аудио кодек: AAC
Видео: 1280x532 (2.40:1) at 23.976 fps, AVC at 2 077 kbps avg, 0.127 bit/pixel
Аудио №1 Rus: 48.0 KHz, AAC, 2 ch, 128.0 Kbps
Субтитры: нет
Навигация по главам: нет
avs [info]: 1280x532p 1:1 @ 24000/1001 fps (cfr)
x264 [info]: using SAR=1/1
x264 [info]: using cpu capabilities: MMX2 SSE2Fast SSSE3 Cache64
x264 [info]: profile High, level 4.1
x264 [info]: frame I:1384 Avg QP:13.21 size:107720
x264 [info]: frame P:30040 Avg QP:16.85 size: 26803
x264 [info]: frame B:116398 Avg QP:20.12 size: 5556
x264 [info]: consecutive B-frames: 2.0% 3.5% 6.3% 14.4% 18.2% 35.9% 6.6% 2.3% 2.4% 2.0% 2.0% 1.5% 3.0%
x264 [info]: mb I I16..4: 9.3% 68.7% 22.0%
x264 [info]: mb P I16..4: 1.8% 10.7% 1.8% P16..4: 40.4% 17.0% 14.3% 0.9% 0.5% skip:12.8%
x264 [info]: mb B I16..4: 0.1% 0.8% 0.2% B16..8: 38.9% 5.5% 1.1% direct: 3.4% skip:49.9% L0:42.9% L1:47.9% BI: 9.2%
x264 [info]: 8x8 transform intra:72.9% inter:61.3%
x264 [info]: direct mvs spatial:99.9% temporal:0.1%
x264 [info]: coded y,uvDC,uvAC intra: 76.6% 81.7% 55.3% inter: 14.3% 17.1% 3.0%
x264 [info]: i16 v,h,dc,p: 24% 16% 11% 49%
x264 [info]: i8 v,h,dc,ddl,ddr,vr,hd,vl,hu: 21% 15% 18% 5% 8% 8% 8% 8% 8%
x264 [info]: i4 v,h,dc,ddl,ddr,vr,hd,vl,hu: 36% 13% 12% 5% 8% 7% 7% 6% 6%
x264 [info]: i8c dc,h,v,p: 53% 19% 20% 8%
x264 [info]: Weighted P-Frames: Y:5.1% UV:2.8%
x264 [info]: ref P L0: 53.4% 12.2% 15.1% 5.4% 3.9% 2.9% 2.4% 1.6% 1.5% 1.5% 0.2% 0.0%
x264 [info]: ref B L0: 81.5% 9.0% 4.0% 1.7% 1.2% 0.9% 0.8% 0.6% 0.3%
x264 [info]: ref B L1: 93.6% 6.4%
x264 [info]: kb/s:2077.33
encoded 147822 frames, 2.03 fps, 2077.33 kb/s
GeneralComplete name : D:\Torrents\Download\Pit_i_ego_drakon_2016_KinoGadget.mp4Format : MPEG-4Format profile : Base MediaCodec ID : isom (isom/avc1/iso6)File size : 1.59 GiBDuration : 1 h 42 minOverall bit rate mode : VariableOverall bit rate : 2 213 kb/sMovie name : Пит и его дракон | KinoGadgetPerformer : Дэвид ЛоуриDirector : Дэвид ЛоуриActor : Брайс Даллас Ховард / Роберт Редфорд / Оакс Фигли / Уна Лоуренс / Уэс Бентли / Карл Урбан / Исайя Уитлок мл. / Маркус Хендерсон / Аарон Джексон / Филип ГривScreenplay by : Дэвид Лоури / Тоби Хальбрукс / Малкольм МарморстинProducer : Адам Борба / Кэртхью Нил / Барри М. ОсборнGenre : Adventure, FamilyContentType : Short FilmRecorded date : 2016Encoded date : UTC 2016-11-30 05:37:09Tagged date : UTC 2016-11-30 06:32:05Cover : YesContentRating : mpaa|PG|200|LongDescription : В течение многих лет Мистер Мичем забавлял местных детишек сказочными историями о свирепом драконе, обитающим на севере, глубоко в лесах. Для его дочери Грейс все эти истории казались ничем иным как выдумкой, ровно до тех пор, пока она не встретила в лесу маленького мальчика по имени Пит. Пит уже долгое время живет в диком лесу, у него нет ни дома, ни семьи, зато есть замечательный друг — огромный зеленый дракон Эллиот. Грейс решает разгадать историю юного Пита, узнать всю правду о его семье и загадочном драконе, о котором ходит так много слухов и легенд.HDVideo : Yes

VideoID : 1Format : AVCFormat/Info : Advanced Video CodecFormat profile : [email protected] settings, CABAC : YesFormat settings, ReFrames : 10 framesCodec ID : avc1Codec ID/Info : Advanced Video CodingDuration : 1 h 42 minBit rate : 2 077 kb/sMaximum bit rate : 31.7 Mb/sWidth : 1 280 pixelsHeight : 532 pixelsDisplay aspect ratio : 2.40:1Frame rate mode : ConstantFrame rate : 23.976 (24000/1001) FPSColor space : YUVChroma subsampling : 4:2:0Bit depth : 8 bitsScan type : ProgressiveBits/(Pixel*Frame) : 0.127Stream size : 1.49 GiB (94%)Writing library : x264 core 148 r2638 7599210Encoding settings : cabac=1 / ref=10 / deblock=1:-1:-1 / analyse=0x3:0x133 / me=umh / subme=7 / psy=1 / psy_rd=1.00:0.15 / mixed_ref=1 / me_range=24 / chroma_me=1 / trellis=2 / 8x8dct=1 / cqm=0 / deadzone=21,11 / fast_pskip=1 / chroma_qp_offset=-3 / threads=3 / lookahead_threads=1 / sliced_threads=0 / nr=0 / decimate=1 / interlaced=0 / bluray_compat=0 / constrained_intra=0 / bframes=12 / b_pyramid=2 / b_adapt=2 / b_bias=0 / direct=3 / weightb=1 / open_gop=0 / weightp=2 / keyint=240 / keyint_min=23 / scenecut=40 / intra_refresh=0 / rc_lookahead=60 / rc=crf / mbtree=1 / crf=18.0 / qcomp=0.60 / qpmin=0 / qpmax=69 / qpstep=4 / ip_ratio=1.40 / aq=1:1.00Encoded date : UTC 2016-11-30 05:37:09Tagged date : UTC 2016-11-30 05:45:00

AudioID : 2Format : AACFormat/Info : Advanced Audio CodecFormat profile : LCCodec ID : 40Duration : 1 h 42 minBit rate mode : VariableBit rate : 128 kb/sMaximum bit rate : 135 kb/sChannel(s) : 2 channelsChannel positions : Front: L RSampling rate : 48.0 kHzFrame rate : 46.875 FPS (1024 spf)Compression mode : LossyStream size : 94.1 MiB (6%)Title : Dub [License]Language : RussianEncoded date : UTC 2016-11-29 08:31:09Tagged date : UTC 2016-11-30 05:45:00
<a href="tracker.php?rid=39840292" class="postLink"> </a>

Трекер:  [ 30-Ноя-2016 10:00 ]

  

Скачать .torrent

Размер .torrent файла 16 KB


Размер: 1.59 GB
Хэш (hash) релиза: 9cd338df54a2291d04bde3629b49a5d0652ecc23

Еще никто не оставлял запись к записи скачать торрент [VIDEO] Пит и его дракон Petes Dragon . Будь первым!

!Обратная связь