Aperçu F1 2018 | Bye Bye Jaqueline Comédia / Nacional / Romance Idioma: Português 2018 MKV Torrent DownloadVídeo 10 / Áudio 10Completo e grátisSinopse: Jaqueline (Poliana Oliveira), uma jovem humilde de 16 anos, é bolsista em um colégio particular e passa seus dias dividida entre os estudos e os...

| El Camino del Guerrero

Скачать через торрент [VIDEO] Безумный Макс: Дорога ярости Mad Max: Fury Road бесплатно русская версия torrent активатор

Статистика раздачи
Размер:  2.65 GB   |    Зарегистрирован:  1 год 8 месяцев   |    .torrent скачан:  96 раз   |   
Раздают:  1  
   
загрузка...
 
Автор Сообщение

Galfimbul

avatar Galfimbul


Безумный Макс: Дорога ярости / Mad Max: Fury Road
«Какой чудесный день»
Премьера (РФ): 14 мая 2015
Оригинальное название: Mad Max: Fury Road
Страна: Австралия, США
Жанр: боевик, фантастика, приключения
Возраст: 16+

Режиссер: Джордж Миллер / George Miller

В ролях: Том Харди, Шарлиз Терон, Николас Холт, Хью Кияс-Бёрн, Джош Хелман, Нэйтан Джонс, Зои Кравиц, Роузи Хантингтон-Уайтли, Райли Кио, Эбби Ли, Кортни Итон, Джон Ховард, Ричард Картер, Иота, Энгус Сэмпсон, Дженнифер Хэйгэн, Меган Гейл, Мелисса Яффер, Мелита Юришич, Джиллиан Джонс

Описание: Преследуемый призраками беспокойного прошлого, Макс уверен, что лучший способ выжить — скитаться в одиночестве. Несмотря на это, он присоединяется к бунтарям, бегущим через всю пустыню на боевой фуре, под предводительством военачальника Фуриосы.

Они пытаются сбежать из Цитадели, страдающей от тирании Несмертного Джо, у которого они забрали кое-что очень ценное. Разъярённый военачальник бросает все свои силы на погоню за мятежниками, ступая на дорогу войны — дорогу ярости.

Продолжительность: 02:00:23
Перевод: Дублированный
Оригинальная дорожка: нет

Автор рипа:

Качество видео: BDRip Исходник: Blu-Ray Remux (1080p) Формат: mp4
Видео кодек: MPEG-4 AVC Аудио кодек: AAC
Видео: 1280x532 (2.40:1) at 23.976 fps, AVC at 3 021 kbps avg, 0.185 bit/pixel
Аудио №1 Rus: 48.0 KHz, AAC, 2 ch, 128.0 Kbps
Субтитры: русские (forced)
Навигация по главам: есть
avs [info]: 1280x532p 1:1 @ 24000/1001 fps (cfr)
x264 [info]: using SAR=1/1
x264 [info]: using cpu capabilities: MMX2 SSE2Fast SSSE3 Cache64
x264 [info]: profile High, level 4.1
x264 [info]: frame I:1717 Avg QP:18.24 size:108377
x264 [info]: frame P:42020 Avg QP:21.64 size: 29650
x264 [info]: frame B:129450 Avg QP:23.72 size: 10009
x264 [info]: consecutive B-frames: 2.9% 3.6% 10.6% 33.9% 18.6% 22.9% 3.9% 3.7%
x264 [info]: mb I I16..4: 11.3% 62.6% 26.1%
x264 [info]: mb P I16..4: 3.0% 16.4% 2.6% P16..4: 39.2% 14.4% 11.8% 0.8% 0.3% skip:11.5%
x264 [info]: mb B I16..4: 0.3% 2.0% 0.5% B16..8: 41.0% 8.5% 2.0% direct: 5.4% skip:40.2% L0:43.7% L1:47.4% BI: 8.9%
x264 [info]: 8x8 transform intra:72.0% inter:70.7%
x264 [info]: direct mvs spatial:99.8% temporal:0.2%
x264 [info]: coded y,uvDC,uvAC intra: 70.4% 81.4% 50.8% inter: 21.4% 28.7% 3.9%
x264 [info]: i16 v,h,dc,p: 23% 22% 9% 45%
x264 [info]: i8 v,h,dc,ddl,ddr,vr,hd,vl,hu: 16% 15% 25% 6% 8% 7% 9% 7% 8%
x264 [info]: i4 v,h,dc,ddl,ddr,vr,hd,vl,hu: 33% 13% 13% 6% 8% 8% 8% 6% 6%
x264 [info]: i8c dc,h,v,p: 48% 22% 19% 11%
x264 [info]: Weighted P-Frames: Y:7.1% UV:3.9%
x264 [info]: ref P L0: 48.7% 14.7% 14.3% 6.2% 4.3% 3.4% 2.8% 1.8% 1.6% 1.7% 0.4% 0.1%
x264 [info]: ref B L0: 80.2% 8.7% 4.4% 2.3% 1.4% 1.1% 1.1% 0.5% 0.2%
x264 [info]: ref B L1: 94.2% 5.8%
x264 [info]: kb/s:3020.92
encoded 173187 frames, 1.82 fps, 3020.92 kb/s
eneralComplete name : D:\Torrents\Download\Bezumnyj_maks_doroga_yarosti_2015_KinoGadget.mp4Format : MPEG-4Format profile : Base MediaCodec ID : isom (isom/avc1/iso6)File size : 2.65 GiBDuration : 2 h 0 minOverall bit rate mode : VariableOverall bit rate : 3 157 kb/sMovie name : Безумный Макс: Дорога ярости | KinoGadgetPerformer : Джордж МиллерDirector : Джордж МиллерActor : Том Харди / Шарлиз Терон / Николас Холт / Хью Кияс-Бёрн / Джош Хелман / Нэйтан Джонс / Зои Кравиц / Роузи Хантингтон-Уайтли / Райли Кио / Эбби Ли / Кортни Итон / Джон Ховард / Ричард Картер / Иота / Энгус Сэмпсон / Дженнифер Хэйгэн / Меган Гейл / Мелисса Яффер / Мелита Юришич / Джиллиан ДжонсScreenplay by : Джордж Миллер / Брендан МакКарти / Ник ЛатурисProducer : Джордж Миллер / Даг Митчелл / Брюс БерманGenre : Action, AdventureContentType : Short FilmRecorded date : 2015Encoded date : UTC 2016-11-26 17:54:02Tagged date : UTC 2016-11-26 19:04:06Cover : YesContentRating : mpaa|R|400|LongDescription : Преследуемый призраками беспокойного прошлого, Макс уверен, что лучший способ выжить — скитаться в одиночестве. Несмотря на это, он присоединяется к бунтарям, бегущим через всю пустыню на боевой фуре, под предводительством военачальника Фуриосы. / / Они пытаются сбежать из Цитадели, страдающей от тирании Несмертного Джо, у которого они забрали кое-что очень ценное. Разъярённый военачальник бросает все свои силы на погоню за мятежниками, ступая на дорогу войны — дорогу ярости.HDVideo : Yes

VideoID : 1Format : AVCFormat/Info : Advanced Video CodecFormat profile : [email protected] settings, CABAC : YesFormat settings, ReFrames : 10 framesCodec ID : avc1Codec ID/Info : Advanced Video CodingDuration : 2 h 0 minBit rate : 3 021 kb/sMaximum bit rate : 23.4 Mb/sWidth : 1 280 pixelsHeight : 532 pixelsDisplay aspect ratio : 2.40:1Frame rate mode : ConstantFrame rate : 23.976 (24000/1001) FPSColor space : YUVChroma subsampling : 4:2:0Bit depth : 8 bitsScan type : ProgressiveBits/(Pixel*Frame) : 0.185Stream size : 2.54 GiB (96%)Writing library : x264 core 148 r2638 7599210Encoding settings : cabac=1 / ref=10 / deblock=1:-1:-1 / analyse=0x3:0x133 / me=umh / subme=7 / psy=1 / psy_rd=1.00:0.15 / mixed_ref=1 / me_range=24 / chroma_me=1 / trellis=2 / 8x8dct=1 / cqm=0 / deadzone=21,11 / fast_pskip=1 / chroma_qp_offset=-3 / threads=3 / lookahead_threads=1 / sliced_threads=0 / nr=0 / decimate=1 / interlaced=0 / bluray_compat=0 / constrained_intra=0 / bframes=7 / b_pyramid=2 / b_adapt=2 / b_bias=0 / direct=3 / weightb=1 / open_gop=0 / weightp=2 / keyint=240 / keyint_min=23 / scenecut=40 / intra_refresh=0 / rc_lookahead=60 / rc=crf / mbtree=1 / crf=21.0 / qcomp=0.60 / qpmin=0 / qpmax=69 / qpstep=4 / ip_ratio=1.40 / aq=1:1.00Encoded date : UTC 2016-11-26 17:54:02Tagged date : UTC 2016-11-26 17:56:03

AudioID : 2Format : AACFormat/Info : Advanced Audio CodecFormat profile : LCCodec ID : 40Duration : 2 h 0 minBit rate mode : VariableBit rate : 128 kb/sMaximum bit rate : 135 kb/sChannel(s) : 2 channelsChannel positions : Front: L RSampling rate : 48.0 kHzFrame rate : 46.875 FPS (1024 spf)Compression mode : LossyStream size : 110 MiB (4%)Title : DubLanguage : RussianEncoded date : UTC 2016-11-25 15:19:27Tagged date : UTC 2016-11-26 17:56:03

TextID : 3Format : Timed TextCodec ID : tx3gDuration : 1 h 53 minBit rate mode : VariableBit rate : 1 b/sStream size : 502 Bytes (0%)Title : ForcedLanguage : RussianForced : NoEncoded date : UTC 2016-11-26 17:56:03Tagged date : UTC 2016-11-26 17:56:03

Menu00:00:00.000 : 00:00:00.00000:10:42.475 : 00:10:42.47500:19:06.437 : 00:19:06.43700:30:12.310 : 00:30:12.31000:42:55.615 : 00:42:55.61500:49:33.345 : 00:49:33.34500:59:55.175 : 00:59:55.17501:13:02.545 : 01:13:02.54501:22:08.924 : 01:22:08.92401:30:02.731 : 01:30:02.73101:40:39.867 : 01:40:39.86701:49:12.546 : 01:49:12.54601:53:06.279 : 01:53:06.279
<a href="tracker.php?rid=39840292" class="postLink"> </a>

Трекер:  [ 26-Ноя-2016 22:00 ]

  

Скачать .torrent

Размер .torrent файла 13 KB


Размер: 2.65 GB
Хэш (hash) релиза: da3b281daf46461d3c3c3ca1bc015ca3490d6e66

Еще никто не оставлял запись к записи скачать торрент [VIDEO] Безумный Макс: Дорога ярости Mad Max: Fury Road . Будь первым!

!Обратная связь