Runar Runarsson | tagto be continued... | Могучие Реки / Jeremy Wade's Mighty Rivers [01х01-05 из 06] (2018) HDTVRip | RusFilm

Скачать через торрент [VIDEO] Парни со стволами War Dogs бесплатно русская версия torrent активатор

Статистика раздачи
Размер:  1.78 GB   |    Зарегистрирован:  1 год 7 месяцев   |    .torrent скачан:  43 раза   |   
Раздают:  1  
   
загрузка...
 
Автор Сообщение

Galfimbul

avatar Galfimbul


Парни со стволами / War Dogs
«An American dream»
Премьера (РФ): 18 августа 2016
Оригинальное название: War Dogs
Страна: США
Жанр: драма, комедия, криминал, военный
Возраст: 18+

Режиссер: Тодд Филлипс / Todd Phillips

В ролях: Майлз Теллер, Джона Хилл, Ана де Армас, Кевин Поллак, Брэдли Купер, Джейби Бланк, Шон Тоуб

Описание: Реальная история о приятелях-планокурах из Майами, умудрившихся выбить в Пентагоне контракт на 300 миллионов долларов на поставку оружия.

Продолжительность: 01:54:12
Перевод: Дублированный [Лицензия]
Оригинальная дорожка: нет

Автор рипа:

Качество видео: BDRip Исходник: Blu-Ray Remux (1080p) Формат: mp4
Видео кодек: MPEG-4 AVC Аудио кодек: AAC
Видео: 1280x532 (2.40:1) at 23.976 fps, AVC at 2 099 kbps avg, 0.129 bit/pixel
Аудио №1 Rus: 48.0 KHz, AAC, 2 ch, 128.0 Kbps
Субтитры: русские [Forced]
Навигация по главам: есть
avs [info]: 1280x532p 1:1 @ 24000/1001 fps (cfr)
x264 [info]: using SAR=1/1
x264 [info]: using cpu capabilities: MMX2 SSE2Fast SSSE3 Cache64
x264 [info]: profile High, level 4.1
x264 [info]: frame I:1486 Avg QP:15.21 size:109712
x264 [info]: frame P:32424 Avg QP:18.54 size: 26677
x264 [info]: frame B:130394 Avg QP:20.78 size: 5907
x264 [info]: consecutive B-frames: 1.8% 1.5% 4.2% 18.3% 16.7% 36.7% 7.2% 10.3% 3.3%
x264 [info]: mb I I16..4: 12.6% 64.3% 23.1%
x264 [info]: mb P I16..4: 1.9% 8.4% 1.5% P16..4: 41.9% 16.6% 14.9% 0.7% 0.3% skip:13.8%
x264 [info]: mb B I16..4: 0.1% 0.6% 0.1% B16..8: 41.7% 5.7% 1.1% direct: 3.2% skip:47.4% L0:44.2% L1:48.8% BI: 7.1%
x264 [info]: 8x8 transform intra:69.6% inter:66.2%
x264 [info]: direct mvs spatial:98.3% temporal:1.7%
x264 [info]: coded y,uvDC,uvAC intra: 72.1% 83.6% 61.1% inter: 14.7% 20.4% 3.9%
x264 [info]: i16 v,h,dc,p: 37% 14% 9% 39%
x264 [info]: i8 v,h,dc,ddl,ddr,vr,hd,vl,hu: 22% 14% 25% 5% 7% 7% 7% 7% 7%
x264 [info]: i4 v,h,dc,ddl,ddr,vr,hd,vl,hu: 37% 14% 12% 5% 7% 7% 7% 6% 5%
x264 [info]: i8c dc,h,v,p: 48% 19% 22% 11%
x264 [info]: Weighted P-Frames: Y:2.6% UV:1.8%
x264 [info]: ref P L0: 47.9% 11.8% 18.3% 6.0% 5.3% 3.5% 3.4% 1.7% 1.9% 0.2% 0.0%
x264 [info]: ref B L0: 77.4% 10.8% 5.1% 2.4% 1.7% 1.4% 0.8% 0.3%
x264 [info]: ref B L1: 93.1% 6.9%
x264 [info]: kb/s:2099.21
encoded 164304 frames, 2.54 fps, 2099.21 kb/s
GeneralComplete name : D:\Torrents\Download\Parni_so_stvolami_2016_KinoGadget.mp4Format : MPEG-4Format profile : Base MediaCodec ID : isom (isom/avc1/iso6)File size : 1.78 GiBDuration : 1 h 54 minOverall bit rate mode : VariableOverall bit rate : 2 235 kb/sMovie name : Парни со стволами | KinoGadgetPerformer : Тодд ФиллипсDirector : Тодд ФиллипсActor : Майлз Теллер / Джона Хилл / Ана де Армас / Кевин Поллак / Брэдли Купер / Джейби Бланк / Шон ТоубScreenplay by : Стефен Чин / Тодд Филлипс / Джейсон СмиловичProducer : Брэдли Купер / Марк Гордон / Скотт БудникGenre : Comedy, Crime, Drama, WarContentType : Short FilmRecorded date : 2016Encoded date : UTC 2016-11-25 11:18:55Tagged date : UTC 2016-11-26 07:00:53Cover : YesContentRating : mpaa|R|400|LongDescription : Реальная история о приятелях-планокурах из Майами, умудрившихся выбить в Пентагоне контракт на 300 миллионов долларов на поставку оружия.HDVideo : Yes

VideoID : 1Format : AVCFormat/Info : Advanced Video CodecFormat profile : [email protected] settings, CABAC : YesFormat settings, ReFrames : 9 framesCodec ID : avc1Codec ID/Info : Advanced Video CodingDuration : 1 h 54 minBit rate : 2 099 kb/sMaximum bit rate : 11.5 Mb/sWidth : 1 280 pixelsHeight : 532 pixelsDisplay aspect ratio : 2.40:1Frame rate mode : ConstantFrame rate : 23.976 (24000/1001) FPSColor space : YUVChroma subsampling : 4:2:0Bit depth : 8 bitsScan type : ProgressiveBits/(Pixel*Frame) : 0.129Stream size : 1.67 GiB (94%)Writing library : x264 core 148 r2638 7599210Encoding settings : cabac=1 / ref=9 / deblock=1:-1:-1 / analyse=0x3:0x133 / me=umh / subme=7 / psy=1 / psy_rd=1.00:0.15 / mixed_ref=1 / me_range=24 / chroma_me=1 / trellis=2 / 8x8dct=1 / cqm=0 / deadzone=21,11 / fast_pskip=1 / chroma_qp_offset=-3 / threads=3 / lookahead_threads=1 / sliced_threads=0 / nr=0 / decimate=1 / interlaced=0 / bluray_compat=0 / constrained_intra=0 / bframes=8 / b_pyramid=2 / b_adapt=2 / b_bias=0 / direct=3 / weightb=1 / open_gop=0 / weightp=2 / keyint=240 / keyint_min=23 / scenecut=40 / intra_refresh=0 / rc_lookahead=60 / rc=crf / mbtree=1 / crf=19.0 / qcomp=0.60 / qpmin=0 / qpmax=69 / qpstep=4 / ip_ratio=1.40 / aq=1:1.00Encoded date : UTC 2016-11-25 11:18:55Tagged date : UTC 2016-11-25 11:27:14

AudioID : 2Format : AACFormat/Info : Advanced Audio CodecFormat profile : LCCodec ID : 40Duration : 1 h 54 minBit rate mode : VariableBit rate : 128 kb/sMaximum bit rate : 135 kb/sChannel(s) : 2 channelsChannel positions : Front: L RSampling rate : 48.0 kHzFrame rate : 46.875 FPS (1024 spf)Compression mode : LossyStream size : 105 MiB (6%)Title : Dub [License]Language : RussianEncoded date : UTC 2016-11-24 17:13:29Tagged date : UTC 2016-11-25 11:27:14

TextID : 3Format : Timed TextCodec ID : tx3gDuration : 1 h 49 minBit rate mode : VariableBit rate : 2 b/sStream size : 1.93 KiB (0%)Title : ForcedLanguage : RussianForced : NoEncoded date : UTC 2016-11-25 11:27:14Tagged date : UTC 2016-11-25 11:27:14

Menu00:00:00.000 : Chapter 0100:10:13.487 : Chapter 0200:19:00.848 : Chapter 0300:30:21.110 : Chapter 0400:40:02.149 : Chapter 0500:50:56.178 : Chapter 0600:59:34.237 : Chapter 0701:10:59.213 : Chapter 0801:20:08.720 : Chapter 0901:32:06.020 : Chapter 1001:39:36.011 : Chapter 1101:48:19.117 : Chapter 12
<a href="tracker.php?rid=39840292" class="postLink"> </a>

Трекер:  [ 26-Ноя-2016 11:30 ]

  

Скачать .torrent

Размер .torrent файла 18 KB


Размер: 1.78 GB
Хэш (hash) релиза: f74e391fe870e947c6d6380caf9056e742014c15

Торренты, похожие на [VIDEO] Парни со стволами War Dogs скачать торрент

Форум Название Автор Размер S L Добавлен
Видео (Фильмы/Клипы) ·· [VIDEO] Парни со стволами / War Dogs (Тодд Филлипс) [2016, США, BDRip] [MP4, 640x] Dub iTunes Galfimbul 770247149735 MB 0 0 1479281692

10:34

16-Ноя-16

Еще никто не оставлял запись к записи скачать торрент [VIDEO] Парни со стволами War Dogs . Будь первым!

!Обратная связь