Osomatsu-san 2 Sub Ita Streaming & Download
Keatas ?

Скачать через торрент [VIDEO] Джейсон Борн Jason Bourne бесплатно русская версия torrent активатор

Статистика раздачи
Размер:  2.08 GB   |    Зарегистрирован:  1 год 4 месяца   |    .torrent скачан:  37 раз   |   
Раздают:  1  
   
загрузка...
 
Автор Сообщение

Galfimbul

avatar Galfimbul


Джейсон Борн / Jason Bourne
«Вы знаете его имя»
Премьера (РФ): 1 сентября 2016
Оригинальное название: Jason Bourne
Страна: Великобритания, Китай, США
Жанр: боевик, триллер
Возраст: 16+

Режиссер: Пол Гринграсс / Paul Greengrass

В ролях: Мэтт Дэймон, Алисия Викандер, Томми Ли Джонс, Венсан Кассель, Джулия Стайлз, Риз Ахмед, Ато Эссонда, Скотт Шеперд, Билл Кэмп, Винцец Кифер

Описание: Мир на грани катастрофы, а значит пришло время ему вернуться. Неаполь, Мюнхен, Нью-Йорк — его имя знают повсюду. Элитный суперагент, лучший из лучших, даже в Лас-Вегасе игра пойдет по его правилам. Он — Джейсон Борн.

Продолжительность: 02:03:11
Перевод: Дублированный [Лицензия Blu-Ray CEE]
Оригинальная дорожка: нет

Автор рипа:

Качество видео: BDRip Исходник: Blu-Ray Remux (1080p) Формат: mp4
Видео кодек: MPEG-4 AVC Аудио кодек: AAC
Видео: 1280x536 (2.40:1) at 23.976 fps, AVC at 2 286 kbps avg, 0.139 bit/pixel
Аудио №1 Rus: 48.0 KHz, AAC, 2 ch, 128.0 Kbps
Субтитры: русские [Forced]
Навигация по главам: есть
avs [info]: 1280x536p 1:1 @ 24000/1001 fps (cfr)
x264 [info]: using SAR=1/1
x264 [info]: using cpu capabilities: MMX2 SSE2Fast SSSE3 Cache64
x264 [info]: profile High, level 4.1
x264 [info]: frame I:1413 Avg QP:16.88 size: 82552
x264 [info]: frame P:45034 Avg QP:20.24 size: 20920
x264 [info]: frame B:130773 Avg QP:22.09 size: 8057
x264 [info]: consecutive B-frames: 4.0% 5.9% 13.5% 20.4% 16.4% 29.5% 10.3%
x264 [info]: mb I I16..4: 12.1% 70.4% 17.5%
x264 [info]: mb P I16..4: 5.1% 16.3% 1.5% P16..4: 42.2% 10.9% 10.0% 0.3% 0.1% skip:13.6%
x264 [info]: mb B I16..4: 0.3% 1.6% 0.1% B16..8: 42.7% 6.1% 1.1% direct: 5.3% skip:42.7% L0:45.0% L1:49.9% BI: 5.1%
x264 [info]: 8x8 transform intra:72.1% inter:77.5%
x264 [info]: direct mvs spatial:99.7% temporal:0.3%
x264 [info]: coded y,uvDC,uvAC intra: 61.2% 74.0% 46.4% inter: 18.1% 25.7% 3.1%
x264 [info]: i16 v,h,dc,p: 35% 21% 7% 37%
x264 [info]: i8 v,h,dc,ddl,ddr,vr,hd,vl,hu: 17% 16% 29% 5% 7% 7% 7% 6% 6%
x264 [info]: i4 v,h,dc,ddl,ddr,vr,hd,vl,hu: 23% 23% 15% 5% 8% 7% 8% 5% 5%
x264 [info]: i8c dc,h,v,p: 53% 20% 18% 9%
x264 [info]: Weighted P-Frames: Y:4.2% UV:2.4%
x264 [info]: ref P L0: 51.0% 9.8% 16.5% 6.6% 4.9% 3.7% 3.1% 2.2% 1.9% 0.5% 0.0%
x264 [info]: ref B L0: 77.5% 10.5% 5.0% 2.5% 1.9% 1.4% 0.8% 0.3%
x264 [info]: ref B L1: 93.2% 6.8%
x264 [info]: kb/s:2286.23
encoded 177220 frames, 2.28 fps, 2286.23 kb/s
GeneralComplete name : D:\Torrents\Download\Dzhejson_born_2016_KinoGadget.mp4Format : MPEG-4Format profile : Base MediaCodec ID : isom (isom/avc1/iso6)File size : 2.08 GiBDuration : 2 h 3 minOverall bit rate mode : VariableOverall bit rate : 2 422 kb/sMovie name : Джейсон Борн | KinoGadgetPerformer : Пол ГринграссDirector : Пол ГринграссActor : Мэтт Дэймон / Алисия Викандер / Томми Ли Джонс / Венсан Кассель / Джулия Стайлз / Риз Ахмед / Ато Эссонда / Скотт Шеперд / Билл Кэмп / Винцец КиферScreenplay by : Пол Гринграсс / Кристофер Раус / Роберт ЛадлэмProducer : Мэтт Дэймон / Грегори Гудман / Пол ГринграссGenre : Action, ThrillerContentType : Short FilmRecorded date : 2016Encoded date : UTC 2016-11-24 08:55:26Tagged date : UTC 2016-11-24 11:22:42Cover : YesContentRating : mpaa|PG-13|300|LongDescription : Мир на грани катастрофы, а значит пришло время ему вернуться. Неаполь, Мюнхен, Нью-Йорк — его имя знают повсюду. Элитный суперагент, лучший из лучших, даже в Лас-Вегасе игра пойдет по его правилам. Он — Джейсон Борн.HDVideo : Yes

VideoID : 1Format : AVCFormat/Info : Advanced Video CodecFormat profile : [email protected] settings, CABAC : YesFormat settings, ReFrames : 9 framesCodec ID : avc1Codec ID/Info : Advanced Video CodingDuration : 2 h 3 minBit rate : 2 286 kb/sMaximum bit rate : 14.4 Mb/sWidth : 1 280 pixelsHeight : 536 pixelsDisplay aspect ratio : 2.40:1Frame rate mode : ConstantFrame rate : 23.976 (24000/1001) FPSColor space : YUVChroma subsampling : 4:2:0Bit depth : 8 bitsScan type : ProgressiveBits/(Pixel*Frame) : 0.139Stream size : 1.97 GiB (94%)Writing library : x264 core 148 r2638 7599210Encoding settings : cabac=1 / ref=9 / deblock=1:-1:-1 / analyse=0x3:0x133 / me=umh / subme=7 / psy=1 / psy_rd=1.00:0.15 / mixed_ref=1 / me_range=24 / chroma_me=1 / trellis=2 / 8x8dct=1 / cqm=0 / deadzone=21,11 / fast_pskip=1 / chroma_qp_offset=-3 / threads=3 / lookahead_threads=1 / sliced_threads=0 / nr=0 / decimate=1 / interlaced=0 / bluray_compat=0 / constrained_intra=0 / bframes=6 / b_pyramid=2 / b_adapt=2 / b_bias=0 / direct=3 / weightb=1 / open_gop=0 / weightp=2 / keyint=240 / keyint_min=23 / scenecut=40 / intra_refresh=0 / rc_lookahead=60 / rc=crf / mbtree=1 / crf=20.0 / qcomp=0.60 / qpmin=0 / qpmax=69 / qpstep=4 / ip_ratio=1.40 / aq=1:1.00Encoded date : UTC 2016-11-24 08:55:26Tagged date : UTC 2016-11-24 09:06:08

AudioID : 2Format : AACFormat/Info : Advanced Audio CodecFormat profile : LCCodec ID : 40Duration : 2 h 3 minBit rate mode : VariableBit rate : 128 kb/sMaximum bit rate : 135 kb/sChannel(s) : 2 channelsChannel positions : Front: L RSampling rate : 48.0 kHzFrame rate : 46.875 FPS (1024 spf)Compression mode : LossyStream size : 113 MiB (5%)Title : Dub [License]Language : RussianEncoded date : UTC 2016-11-23 11:15:35Tagged date : UTC 2016-11-24 09:06:08

TextID : 3Format : Timed TextCodec ID : tx3gDuration : 1 h 52 minBit rate mode : VariableBit rate : 3 b/sStream size : 2.14 KiB (0%)Title : ForcedLanguage : RussianForced : NoEncoded date : UTC 2016-11-24 09:06:08Tagged date : UTC 2016-11-24 09:06:08

Menu00:00:00.000 : Chapter 100:04:04.661 : Chapter 200:08:21.543 : Chapter 300:13:32.687 : Chapter 400:18:28.316 : Chapter 500:24:07.237 : Chapter 600:29:21.259 : Chapter 700:36:15.548 : Chapter 800:42:20.663 : Chapter 900:48:22.441 : Chapter 1000:55:12.184 : Chapter 1101:01:09.666 : Chapter 1201:08:32.483 : Chapter 1301:16:23.329 : Chapter 1401:24:45.330 : Chapter 1501:29:06.550 : Chapter 1601:37:52.909 : Chapter 1701:44:26.343 : Chapter 1801:48:03.727 : Chapter 1901:54:01.209 : Chapter 20
<a href="tracker.php?rid=39840292" class="postLink"> </a>

Трекер:  [ 24-Ноя-2016 15:30 ]

  

Скачать .torrent

Размер .torrent файла 11 KB


Размер: 2.08 GB
Хэш (hash) релиза: 33b8a2bac3fe712af15ee2903180f084f1c8c1dd

Торренты, похожие на [VIDEO] Джейсон Борн Jason Bourne скачать торрент

Форум Название Автор Размер S L Добавлен
Видео (Фильмы/Клипы) ·· [VIDEO] Джейсон Борн / Jason Bourne (Пол Гринграсс) [2016, США, Боевик, триллер, HDRip] [MP4, 640x] Galfimbul 829671786791 MB 1 3 1479465707

13:41

18-Ноя-16

Еще никто не оставлял запись к записи скачать торрент [VIDEO] Джейсон Борн Jason Bourne . Будь первым!

!Обратная связь