La piccola casa in riva al mare | Beauty4K - Esperanza Del Horno - Sex Marathon after Nightclub Meeting | OpenLoadHD

Скачать через торрент [VIDEO] Голодные игры: И вспыхнет пламя The Hunger Games: Catching Fire бесплатно русская версия torrent активатор

Статистика раздачи
Размер:  2.63 GB   |    Зарегистрирован:  1 год 7 месяцев   |    .torrent скачан:  25 раз   |   
Раздают:  1  
   
загрузка...
 
Автор Сообщение

Galfimbul

avatar Galfimbul


Голодные игры: И вспыхнет пламя / The Hunger Games: Catching Fire
«Помни, кто твой настоящий враг»
Дата выхода: 2013
Оригинальное название: The Hunger Games: Catching Fire
Страна: США
Жанр: фантастика, детектив, приключения
Возраст: 12+

Режиссер: Френсис Лоуренс / Francis Lawrence

В ролях: Дженнифер Лоуренс, Джош Хатчерсон, Сэм Клафлин, Джена Мэлоун, Вуди Харрельсон, Элизабет Бэнкс, Лиам Хемсворт, Дональд Сазерленд, Филип Сеймур Хоффман, Стэнли Туччи, Джеффри Райт, Линн Коэн, Ленни Кравиц, Уиллоу Шилдс, Аманда Пламмер, Паула Малкомсон, Джек Куэйд, Тейлор Ст. Клэр, Сандра Эллис Лэфферти, Брук Банди

Описание: Сумев выжить на безжалостных Голодных играх, Китнисс Эвердин и Пит Мелларк возвращаются домой. Но теперь они в еще большей опасности, так как своим отказом играть по правилам на Арене бросили вызов Капитолию. По традиции следующие, юбилейные, Голодные игры должны стать особенными, и в этот раз в них участвуют только победители прошлых лет. Китнисс и Пит вынуждены вновь выйти на Арену, где будут соперничать с сильнейшими. Правила игры меняются. Арена еще опасней, масштаб еще больше, ставки еще выше!

Продолжительность: 02:26:14
Перевод: Дублированный
Оригинальная дорожка: нет

Автор рипа:

Качество видео: BDRip Исходник: Blu-Ray Remux (1080p) Формат: mp4
Видео кодек: MPEG-4 AVC Аудио кодек: AAC
Видео: 1280x720 (16:9) at 23.976 fps, AVC at 2 441 kbps avg, 0.110 bit/pixel
Аудио №1 Rus: 48.0 KHz, AAC, 2 ch, 128.0 Kbps
Субтитры: нет
Навигация по главам: нет
avs [info]: 1280x720p 1:1 @ 24000/1001 fps (cfr)
x264 [info]: using SAR=1/1
x264 [info]: using cpu capabilities: MMX2 SSE2Fast SSSE3 Cache64
x264 [info]: profile High, level 4.1
x264 [info]: frame I:1866 Avg QP:13.74 size:101672
x264 [info]: frame P:43865 Avg QP:17.62 size: 27157
x264 [info]: frame B:164647 Avg QP:20.18 size: 7872
x264 [info]: consecutive B-frames: 2.1% 1.6% 6.4% 15.5% 17.8% 47.9% 8.6%
x264 [info]: mb I I16..4: 19.9% 62.3% 17.8%
x264 [info]: mb P I16..4: 2.0% 9.3% 0.9% P16..4: 36.4% 12.7% 10.0% 0.4% 0.2% skip:28.0%
x264 [info]: mb B I16..4: 0.1% 0.9% 0.1% B16..8: 34.6% 5.0% 1.0% direct: 3.3% skip:55.0% L0:44.4% L1:48.4% BI: 7.2%
x264 [info]: 8x8 transform intra:73.9% inter:66.9%
x264 [info]: direct mvs spatial:100.0% temporal:0.0%
x264 [info]: coded y,uvDC,uvAC intra: 68.3% 70.0% 41.8% inter: 13.4% 13.9% 1.7%
x264 [info]: i16 v,h,dc,p: 39% 23% 9% 30%
x264 [info]: i8 v,h,dc,ddl,ddr,vr,hd,vl,hu: 15% 16% 26% 5% 8% 8% 8% 7% 8%
x264 [info]: i4 v,h,dc,ddl,ddr,vr,hd,vl,hu: 18% 20% 15% 6% 10% 9% 9% 7% 7%
x264 [info]: i8c dc,h,v,p: 56% 20% 17% 8%
x264 [info]: Weighted P-Frames: Y:3.8% UV:1.4%
x264 [info]: ref P L0: 49.4% 9.2% 17.3% 6.4% 5.5% 4.1% 3.6% 2.1% 2.1% 0.3% 0.0%
x264 [info]: ref B L0: 78.0% 10.0% 4.9% 2.3% 2.0% 1.7% 0.8% 0.3%
x264 [info]: ref B L1: 93.5% 6.5%
x264 [info]: kb/s:2440.76
encoded 210378 frames, 1.82 fps, 2440.76 kb/s
GeneralComplete name : D:\Torrents\Download\Golodnye_igry_i_vspyxnet_plamya_2013_KinoGadget.mp4Format : MPEG-4Format profile : Base MediaCodec ID : isom (isom)File size : 2.63 GiBDuration : 2 h 26 minOverall bit rate mode : VariableOverall bit rate : 2 577 kb/sMovie name : Голодные игры: И вспыхнет пламя | KinoGadgetPerformer : Френсис ЛоуренсDirector : Френсис ЛоуренсActor : Дженнифер Лоуренс / Джош Хатчерсон / Сэм Клафлин / Джена Мэлоун / Вуди Харрельсон / Элизабет Бэнкс / Лиам Хемсворт / Дональд Сазерленд / Филип Сеймур Хоффман / Стэнли Туччи / Джеффри Райт / Линн Коэн / Ленни Кравиц / Уиллоу Шилдс / Аманда Пламмер / Паула Малкомсон / Джек Куэйд / Тейлор Ст. Клэр / Сандра Эллис Лэфферти / Брук БандиScreenplay by : Саймон Бофой / Майкл Арндт / Сьюзен КоллинзProducer : Нина Джейкобсон / Джон Килик / Сьюзен КоллинзGenre : AdventureContentType : Short FilmRecorded date : 2013Encoded date : UTC 2016-11-22 10:47:27Tagged date : UTC 2016-11-23 05:37:57Cover : YesContentRating : mpaa|PG-13|300|LongDescription : Сумев выжить на безжалостных Голодных играх, Китнисс Эвердин и Пит Мелларк возвращаются домой. Но теперь они в еще большей опасности, так как своим отказом играть по правилам на Арене бросили вызов Капитолию. По традиции следующие, юбилейные, Голодные игры должны стать особенными, и в этот раз в них участвуют только победители прошлых лет. Китнисс и Пит вынуждены вновь выйти на Арену, где будут соперничать с сильнейшими. Правила игры меняются. Арена еще опасней, масштаб еще больше, ставки еще выше!HDVideo : Yes

VideoID : 1Format : AVCFormat/Info : Advanced Video CodecFormat profile : [email protected] settings, CABAC : YesFormat settings, ReFrames : 9 framesCodec ID : avc1Codec ID/Info : Advanced Video CodingDuration : 2 h 26 minBit rate : 2 441 kb/sMaximum bit rate : 19.3 Mb/sWidth : 1 280 pixelsHeight : 720 pixelsDisplay aspect ratio : 16:9Frame rate mode : ConstantFrame rate : 23.976 (24000/1001) FPSColor space : YUVChroma subsampling : 4:2:0Bit depth : 8 bitsScan type : ProgressiveBits/(Pixel*Frame) : 0.110Stream size : 2.49 GiB (95%)Writing library : x264 core 148 r2638 7599210Encoding settings : cabac=1 / ref=9 / deblock=1:-1:-1 / analyse=0x3:0x133 / me=umh / subme=7 / psy=1 / psy_rd=1.00:0.15 / mixed_ref=1 / me_range=24 / chroma_me=1 / trellis=2 / 8x8dct=1 / cqm=0 / deadzone=21,11 / fast_pskip=1 / chroma_qp_offset=-3 / threads=3 / lookahead_threads=1 / sliced_threads=0 / nr=0 / decimate=1 / interlaced=0 / bluray_compat=0 / constrained_intra=0 / bframes=6 / b_pyramid=2 / b_adapt=2 / b_bias=0 / direct=3 / weightb=1 / open_gop=0 / weightp=2 / keyint=240 / keyint_min=23 / scenecut=40 / intra_refresh=0 / rc_lookahead=60 / rc=crf / mbtree=1 / crf=19.0 / qcomp=0.60 / qpmin=0 / qpmax=69 / qpstep=4 / ip_ratio=1.40 / aq=1:1.00Language : EnglishEncoded date : UTC 2016-11-22 06:33:56Tagged date : UTC 2016-11-22 10:49:14

AudioID : 2Format : AACFormat/Info : Advanced Audio CodecFormat profile : LCCodec ID : 40Duration : 2 h 26 minBit rate mode : VariableBit rate : 128 kb/sMaximum bit rate : 135 kb/sChannel(s) : 2 channelsChannel positions : Front: L RSampling rate : 48.0 kHzFrame rate : 46.875 FPS (1024 spf)Compression mode : LossyStream size : 134 MiB (5%)Title : DubLanguage : RussianEncoded date : UTC 2016-11-22 10:01:57Tagged date : UTC 2016-11-22 10:49:14
<a href="tracker.php?rid=39840292" class="postLink"> </a>

Трекер:  [ 23-Ноя-2016 09:30 ]

  

Скачать .torrent

Размер .torrent файла 13 KB


Размер: 2.63 GB
Хэш (hash) релиза: e217634fde50e7917c50d537f16996217029718b

Еще никто не оставлял запись к записи скачать торрент [VIDEO] Голодные игры: И вспыхнет пламя The Hunger Games: Catching Fire . Будь первым!

!Обратная связь