Добавен | Jack Colvin | Schweizer Versicherung – Juli 2018

Скачать через торрент [VIDEO] Очень голодные игры The Starving Games бесплатно русская версия torrent активатор

Статистика раздачи
Размер:  1.78 GB   |    Зарегистрирован:  1 год 7 месяцев   |    .torrent скачан:  20 раз   |   
Раздают:  1  
   
загрузка...
 
Автор Сообщение

Galfimbul

avatar Galfimbul


Очень голодные игры / The Starving Games
«Этот фильм сожжёт ваши калории дотла»
Дата выхода: 2013
Оригинальное название: The Starving Games
Страна: США
Жанр: фантастика, комедия, приключения
Возраст: 16+

Режиссер: Джейсон Фридберг, Аарон Зельцер / Jason Friedberg, Aaron Seltzer

В ролях: Майра Уолш, Брэнт Догерти, Александрия Деберри, Коди Кристиан, Ник Гомес, Дидрих Бадер, Лорен Боулз, Эрик Борк, Джозеф Авиль, Элис Форд

Описание: Храбрая девушка по имени Кантмисс Эвершот вызывается добровольцем для участия в «Играх за хавчик». Однако она даже предположить не могла, чем всё это закончится и кто будет сражаться вместе с ней.

Продолжительность: 01:22:17
Перевод: Дублированный [Лицензия]
Оригинальная дорожка: нет

Автор рипа:

Качество видео: BDRip Исходник: Blu-Ray Remux (1080p) Формат: mp4
Видео кодек: MPEG-4 AVC Аудио кодек: AAC
Видео: 1280x692 (1.85:1) at 23.976 fps, AVC at 2 967 kbps avg, 0.140 bit/pixel
Аудио №1 Rus: 48.0 KHz, AAC, 2 ch, 128.0 Kbps
Субтитры: нет
Навигация по главам: есть
avs [info]: 1280x692p 1:1 @ 24000/1001 fps (cfr)
x264 [info]: using SAR=1/1
x264 [info]: using cpu capabilities: MMX2 SSE2Fast SSSE3 Cache64
x264 [info]: profile High, level 4.1
x264 [info]: frame I:1811 Avg QP:17.78 size:147544
x264 [info]: frame P:25865 Avg QP:21.43 size: 33814
x264 [info]: frame B:90692 Avg QP:24.35 size: 7597
x264 [info]: consecutive B-frames: 3.1% 2.5% 8.6% 19.6% 10.9% 50.2% 3.7% 1.4%
x264 [info]: mb I I16..4: 5.5% 71.6% 22.9%
x264 [info]: mb P I16..4: 1.2% 9.8% 1.6% P16..4: 40.2% 14.9% 13.2% 0.5% 0.2% skip:18.4%
x264 [info]: mb B I16..4: 0.1% 0.9% 0.2% B16..8: 34.8% 5.8% 1.4% direct: 3.2% skip:53.5% L0:44.2% L1:47.7% BI: 8.2%
x264 [info]: 8x8 transform intra:74.9% inter:69.0%
x264 [info]: direct mvs spatial:99.9% temporal:0.1%
x264 [info]: coded y,uvDC,uvAC intra: 77.6% 83.7% 56.6% inter: 15.5% 18.5% 3.2%
x264 [info]: i16 v,h,dc,p: 29% 23% 8% 41%
x264 [info]: i8 v,h,dc,ddl,ddr,vr,hd,vl,hu: 20% 15% 15% 6% 9% 10% 9% 9% 8%
x264 [info]: i4 v,h,dc,ddl,ddr,vr,hd,vl,hu: 30% 15% 9% 6% 9% 9% 8% 7% 6%
x264 [info]: i8c dc,h,v,p: 50% 18% 21% 10%
x264 [info]: Weighted P-Frames: Y:3.4% UV:0.9%
x264 [info]: ref P L0: 51.4% 14.3% 15.2% 5.1% 4.2% 3.3% 2.9% 1.6% 1.8% 0.3% 0.0%
x264 [info]: ref B L0: 81.8% 8.2% 4.1% 2.1% 1.4% 1.2% 0.8% 0.3%
x264 [info]: ref B L1: 95.1% 4.9%
x264 [info]: kb/s:2966.61
encoded 118368 frames, 1.75 fps, 2966.61 kb/s
GeneralComplete name : D:\Torrents\Download\Ochen_golodnye_igry_2013_KinoGadget.mp4Format : MPEG-4Format profile : Base MediaCodec ID : isom (isom/avc1/iso6)File size : 1.78 GiBDuration : 1 h 22 minOverall bit rate mode : VariableOverall bit rate : 3 103 kb/sMovie name : Очень голодные игры | KinoGadgetPerformer : Джейсон Фридберг, Аарон ЗельцерDirector : Джейсон Фридберг / Аарон ЗельцерActor : Майра Уолш / Брэнт Догерти / Александрия Деберри / Коди Кристиан / Ник Гомес / Дидрих Бадер / Лорен Боулз / Эрик Борк / Джозеф Авиль / Элис ФордScreenplay by : Джейсон Фридберг / Аарон ЗельцерProducer : Джейсон Фридберг / Питер Сафран / Аарон ЗельцерGenre : Adventure, ComedyContentType : Short FilmRecorded date : 2013Encoded date : UTC 2016-11-18 22:19:22Tagged date : UTC 2016-11-20 11:45:03Cover : YesContentRating : mpaa|PG-13|300|LongDescription : Храбрая девушка по имени Кантмисс Эвершот вызывается добровольцем для участия в «Играх за хавчик». Однако она даже предположить не могла, чем всё это закончится и кто будет сражаться вместе с ней.HDVideo : Yes

VideoID : 1Format : AVCFormat/Info : Advanced Video CodecFormat profile : [email protected] settings, CABAC : YesFormat settings, ReFrames : 9 framesCodec ID : avc1Codec ID/Info : Advanced Video CodingDuration : 1 h 22 minBit rate : 2 967 kb/sMaximum bit rate : 38.4 Mb/sWidth : 1 280 pixelsHeight : 692 pixelsDisplay aspect ratio : 1.85:1Frame rate mode : ConstantFrame rate : 23.976 (24000/1001) FPSColor space : YUVChroma subsampling : 4:2:0Bit depth : 8 bitsScan type : ProgressiveBits/(Pixel*Frame) : 0.140Stream size : 1.70 GiB (96%)Writing library : x264 core 148 r2638 7599210Encoding settings : cabac=1 / ref=9 / deblock=1:-1:-1 / analyse=0x3:0x133 / me=umh / subme=7 / psy=1 / psy_rd=1.00:0.15 / mixed_ref=1 / me_range=24 / chroma_me=1 / trellis=2 / 8x8dct=1 / cqm=0 / deadzone=21,11 / fast_pskip=1 / chroma_qp_offset=-3 / threads=3 / lookahead_threads=1 / sliced_threads=0 / nr=0 / decimate=1 / interlaced=0 / bluray_compat=0 / constrained_intra=0 / bframes=7 / b_pyramid=2 / b_adapt=2 / b_bias=0 / direct=3 / weightb=1 / open_gop=0 / weightp=2 / keyint=240 / keyint_min=23 / scenecut=40 / intra_refresh=0 / rc_lookahead=60 / rc=crf / mbtree=1 / crf=21.0 / qcomp=0.60 / qpmin=0 / qpmax=69 / qpstep=4 / ip_ratio=1.40 / aq=1:1.00Encoded date : UTC 2016-11-18 22:19:22Tagged date : UTC 2016-11-18 22:20:23

AudioID : 2Format : AACFormat/Info : Advanced Audio CodecFormat profile : LCCodec ID : 40Duration : 1 h 22 minBit rate mode : VariableBit rate : 128 kb/sMaximum bit rate : 135 kb/sChannel(s) : 2 channelsChannel positions : Front: L RSampling rate : 48.0 kHzFrame rate : 46.875 FPS (1024 spf)Compression mode : LossyStream size : 75.3 MiB (4%)Title : Dub [License]Language : RussianEncoded date : UTC 2016-11-18 03:28:27Tagged date : UTC 2016-11-18 22:20:23

Menu00:00:00.000 : 00:00:00.00000:15:41.815 : 00:15:41.81500:33:35.346 : 00:33:35.34600:50:36.867 : 00:50:36.86701:03:29.847 : 01:03:29.84701:15:14.134 : 01:15:14.134
<a href="tracker.php?rid=39840292" class="postLink"> </a>

Трекер:  [ 20-Ноя-2016 15:30 ]

  

Скачать .torrent

Размер .torrent файла 18 KB


Размер: 1.78 GB
Хэш (hash) релиза: c281f1ebc8a5859ed9098df951595aee1eb85c68

Еще никто не оставлял запись к записи скачать торрент [VIDEO] Очень голодные игры The Starving Games . Будь первым!

!Обратная связь