Plasmaphysik | Good Doctor | bilibili

Скачать через торрент [VIDEO] Механик: Воскрешение Mechanic: Resurrection бесплатно русская версия torrent активатор

Статистика раздачи
Размер:  1.95 GB   |    Зарегистрирован:  1 год 8 месяцев   |    .torrent скачан:  341 раз   |   
Раздают:  1  
   
загрузка...
 
Автор Сообщение

Galfimbul

avatar Galfimbul


Механик: Воскрешение / Mechanic: Resurrection
«Four continents. Three kills... Or the love of his life is dead»
Дата выхода: 2016
Оригинальное название: Mechanic: Resurrection
Страна: Франция, США
Жанр: боевик, триллер, криминал
Возраст: 18+

Режиссер: Деннис Ганзель / Dennis Gansel

В ролях: Джейсон Стэйтем, Джессика Альба, Томми Ли Джонс, Мишель Йео, Наталия Гуслистая, Ейяинг Рхатха Пхонгам, Сэм Хэзелдайн, Джон Ченатьемпо, Райчо Василев, Аарон Брамфилд

Описание: Артура Бишопа, давно оставившего свое криминальное ремесло, вынуждают снова вступить в игру. Чтобы похитители вернули его возлюбленную, он должен сделать то, что у него получается лучше всего: от него требуется совершить три убийства, идеально обставленных как несчастные случаи.

Продолжительность: 01:38:38
Перевод: Дублированный [iTunes]
Оригинальная дорожка: нет

Автор рипа:

Качество видео: BDRip Исходник: Blu-Ray Remux (1080p) Формат: mp4
Видео кодек: MPEG-4 AVC Аудио кодек: AAC
Видео: 1280x536 (2.40:1) at 23.976 fps, AVC at 2 698 kbps avg, 0.164 bit/pixel
Аудио №1 Rus: 48.0 KHz, AAC, 2 ch, 128.0 Kbps
Субтитры: нет
Навигация по главам: есть
avs [info]: 1280x536p 1:1 @ 24000/1001 fps (cfr)
x264 [info]: using SAR=1/1
x264 [info]: using cpu capabilities: MMX2 SSE2Fast SSSE3 Cache64
x264 [info]: profile High, level 4.1
x264 [info]: frame I:1459 Avg QP:14.15 size:107601
x264 [info]: frame P:33650 Avg QP:18.03 size: 27916
x264 [info]: frame B:106803 Avg QP:20.24 size: 8423
x264 [info]: consecutive B-frames: 3.5% 3.7% 11.1% 24.8% 17.6% 25.7% 5.7% 1.9% 2.1% 1.7% 2.1%
x264 [info]: mb I I16..4: 11.2% 64.1% 24.7%
x264 [info]: mb P I16..4: 3.0% 15.3% 2.3% P16..4: 39.2% 15.0% 12.2% 0.7% 0.3% skip:12.0%
x264 [info]: mb B I16..4: 0.2% 1.3% 0.3% B16..8: 40.0% 7.3% 1.7% direct: 5.1% skip:44.1% L0:42.9% L1:47.2% BI: 9.9%
x264 [info]: 8x8 transform intra:72.6% inter:67.3%
x264 [info]: direct mvs spatial:100.0% temporal:0.0%
x264 [info]: coded y,uvDC,uvAC intra: 72.7% 78.1% 53.5% inter: 18.1% 20.8% 3.9%
x264 [info]: i16 v,h,dc,p: 27% 17% 10% 46%
x264 [info]: i8 v,h,dc,ddl,ddr,vr,hd,vl,hu: 19% 17% 20% 5% 8% 8% 8% 7% 8%
x264 [info]: i4 v,h,dc,ddl,ddr,vr,hd,vl,hu: 23% 17% 15% 6% 10% 8% 9% 6% 6%
x264 [info]: i8c dc,h,v,p: 51% 20% 20% 10%
x264 [info]: Weighted P-Frames: Y:3.4% UV:2.1%
x264 [info]: ref P L0: 52.6% 11.2% 16.0% 6.6% 4.7% 3.5% 2.9% 2.1% 0.4% 0.0%
x264 [info]: ref B L0: 81.0% 9.5% 4.5% 2.1% 1.6% 0.8% 0.4%
x264 [info]: ref B L1: 93.8% 6.2%
x264 [info]: kb/s:2697.76
encoded 141912 frames, 2.43 fps, 2697.76 kb/s
GeneralComplete name : D:\Torrents\Download\Mexanik_voskreshenie_2016_KinoGadget.mp4Format : MPEG-4Format profile : Base MediaCodec ID : isom (isom/avc1/iso6)File size : 1.95 GiBDuration : 1 h 38 minOverall bit rate mode : VariableOverall bit rate : 2 834 kb/sMovie name : Механик: Воскрешение | KinoGadgetPerformer : Деннис ГанзельDirector : Деннис ГанзельActor : Джейсон Стэйтем / Джессика Альба / Томми Ли Джонс / Мишель Йео / Наталия Гуслистая / Ейяинг Рхатха Пхонгам / Сэм Хэзелдайн / Джон Ченатьемпо / Райчо Василев / Аарон БрамфилдScreenplay by : Филип Шелби / Тони Мошер / Рэйчел ЛонгProducer : Уильям Чартофф / Роберт Эрл / Джон ТомпсонGenre : Action, Crime, ThrillerContentType : Short FilmRecorded date : 2016Encoded date : UTC 2016-11-20 10:29:50Tagged date : UTC 2016-11-20 11:19:25Cover : YesContentRating : mpaa|R|400|LongDescription : Артура Бишопа, давно оставившего свое криминальное ремесло, вынуждают снова вступить в игру. Чтобы похитители вернули его возлюбленную, он должен сделать то, что у него получается лучше всего: от него требуется совершить три убийства, идеально обставленных как несчастные случаи.HDVideo : Yes

VideoID : 1Format : AVCFormat/Info : Advanced Video CodecFormat profile : [email protected] settings, CABAC : YesFormat settings, ReFrames : 8 framesCodec ID : avc1Codec ID/Info : Advanced Video CodingDuration : 1 h 38 minBit rate : 2 698 kb/sMaximum bit rate : 30.0 Mb/sWidth : 1 280 pixelsHeight : 536 pixelsDisplay aspect ratio : 2.40:1Frame rate mode : ConstantFrame rate : 23.976 (24000/1001) FPSColor space : YUVChroma subsampling : 4:2:0Bit depth : 8 bitsScan type : ProgressiveBits/(Pixel*Frame) : 0.164Stream size : 1.86 GiB (95%)Writing library : x264 core 148 r2638 7599210Encoding settings : cabac=1 / ref=8 / deblock=1:-1:-1 / analyse=0x3:0x133 / me=umh / subme=7 / psy=1 / psy_rd=1.00:0.15 / mixed_ref=1 / me_range=24 / chroma_me=1 / trellis=2 / 8x8dct=1 / cqm=0 / deadzone=21,11 / fast_pskip=1 / chroma_qp_offset=-3 / threads=3 / lookahead_threads=1 / sliced_threads=0 / nr=0 / decimate=1 / interlaced=0 / bluray_compat=0 / constrained_intra=0 / bframes=10 / b_pyramid=2 / b_adapt=2 / b_bias=0 / direct=3 / weightb=1 / open_gop=0 / weightp=2 / keyint=240 / keyint_min=23 / scenecut=40 / intra_refresh=0 / rc_lookahead=60 / rc=crf / mbtree=1 / crf=18.0 / qcomp=0.60 / qpmin=0 / qpmax=69 / qpstep=4 / ip_ratio=1.40 / aq=1:1.00Encoded date : UTC 2016-11-20 10:29:50Tagged date : UTC 2016-11-20 10:31:09

AudioID : 2Format : AACFormat/Info : Advanced Audio CodecFormat profile : LCCodec ID : 40Duration : 1 h 38 minBit rate mode : VariableBit rate : 128 kb/sMaximum bit rate : 135 kb/sChannel(s) : 2 channelsChannel positions : Front: L RSampling rate : 48.0 kHzFrame rate : 46.875 FPS (1024 spf)Compression mode : LossyStream size : 90.3 MiB (5%)Title : Dub [iTunes]Language : RussianEncoded date : UTC 2016-11-19 18:12:25Tagged date : UTC 2016-11-20 10:31:09

Menu00:00:00.000 : 00:00:00.00000:06:34.936 : 00:06:34.93600:11:51.336 : 00:11:51.33600:18:31.277 : 00:18:31.27700:26:04.897 : 00:26:04.89700:31:57.540 : 00:31:57.54000:38:31.267 : 00:38:31.26700:43:35.696 : 00:43:35.69600:49:23.210 : 00:49:23.21000:54:20.382 : 00:54:20.38201:00:09.856 : 01:00:09.85601:05:50.446 : 01:05:50.44601:10:25.429 : 01:10:25.42901:14:52.363 : 01:14:52.36301:21:04.860 : 01:21:04.86001:31:38.785 : 01:31:38.785
<a href="tracker.php?rid=39840292" class="postLink"> </a>

Трекер:  [ 20-Ноя-2016 15:00 ]

  

Скачать .torrent

Размер .torrent файла 20 KB


Размер: 1.95 GB
Хэш (hash) релиза: 1d9af47103d295a88b4f797bba5a3996d678b040

Еще никто не оставлял запись к записи скачать торрент [VIDEO] Механик: Воскрешение Mechanic: Resurrection . Будь первым!

!Обратная связь