Recuperar Contraseña | Плейбой | Muscle Memory

Скачать через торрент [VIDEO] Охотники за головами Bounty Hunters бесплатно русская версия torrent активатор

Статистика раздачи
Размер:  2.04 GB   |    Зарегистрирован:  1 год 7 месяцев   |    .torrent скачан:  24 раза   |   
Раздают:  1  
   
загрузка...
 
Автор Сообщение

Galfimbul

avatar Galfimbul


Охотники за головами / Bounty Hunters
Дата выхода: 1 июля 2016
Оригинальное название: Bounty Hunters
Страна: Китай
Жанр: боевик, мелодрама, комедия
Возраст: 16+

Режиссер: Щин Тхэ-ра / Sin Tae-ra

В ролях: Мин Хо Ли (I), Уоллес Чун, Тиффани Тан, Карена Нг, Фан Сю-Вон, Луис Фань, Jones Jeremy, Тан Янь

Описание: Главные герои фильма Bounty Hunters (2016) понимают, что боратного пути нет, отныне они одна команда и готовы бороться за чистоту и порядок во всем мире. Многие преступники знают о существовании специального подразделения, поэтому в последние время стали вести себя более осторожно, что значительно усложняет жизнь молодым людям. За каждого пойманного преступника им платят хорошие деньги, это некого рода бизнес, ценой которого в один момент могут стать их жизни. Смотреть онлайн фильм и вы узнаете, чем на самом деле завершится эта история.

Продолжительность: 01:45:14
Перевод: Любительский двухголосый [FSG COMEBACK]
Оригинальная дорожка: нет

Автор рипа:

Качество видео: BDRip Исходник: Blu-Ray Remux (1080p) Формат: mp4
Видео кодек: MPEG-4 AVC Аудио кодек: AAC
Видео: 1280x536 (2.40:1) at 24.000 fps, AVC at 2 637 kbps avg, 0.160 bit/pixel
Аудио №1 Rus: 48.0 KHz, AAC, 2 ch, 128.0 Kbps
Субтитры: нет
Навигация по главам: есть
avs [info]: 1280x536p 1:1 @ 24/1 fps (cfr)
x264 [info]: using SAR=1/1
x264 [info]: using cpu capabilities: MMX2 SSE2Fast SSSE3 Cache64
x264 [info]: profile High, level 4.1
x264 [info]: frame I:1953 Avg QP:17.03 size: 96445
x264 [info]: frame P:33578 Avg QP:20.49 size: 28998
x264 [info]: frame B:116009 Avg QP:22.75 size: 7922
x264 [info]: consecutive B-frames: 2.9% 2.7% 10.1% 18.0% 12.5% 50.1% 3.7%
x264 [info]: mb I I16..4: 9.3% 69.2% 21.5%
x264 [info]: mb P I16..4: 2.5% 11.4% 1.5% P16..4: 43.8% 14.9% 13.8% 0.6% 0.3% skip:11.1%
x264 [info]: mb B I16..4: 0.2% 1.0% 0.2% B16..8: 40.4% 6.2% 1.4% direct: 6.1% skip:44.6% L0:42.6% L1:48.9% BI: 8.6%
x264 [info]: 8x8 transform intra:72.5% inter:72.0%
x264 [info]: direct mvs spatial:99.9% temporal:0.1%
x264 [info]: coded y,uvDC,uvAC intra: 70.8% 89.6% 72.2% inter: 15.6% 34.5% 13.0%
x264 [info]: i16 v,h,dc,p: 22% 20% 7% 51%
x264 [info]: i8 v,h,dc,ddl,ddr,vr,hd,vl,hu: 19% 18% 20% 5% 8% 8% 8% 7% 8%
x264 [info]: i4 v,h,dc,ddl,ddr,vr,hd,vl,hu: 23% 19% 12% 6% 9% 9% 9% 7% 7%
x264 [info]: i8c dc,h,v,p: 47% 20% 19% 13%
x264 [info]: Weighted P-Frames: Y:6.1% UV:3.2%
x264 [info]: ref P L0: 50.0% 12.2% 18.0% 6.2% 4.9% 3.2% 3.1% 1.9% 0.4% 0.0%
x264 [info]: ref B L0: 80.5% 10.0% 4.6% 2.3% 1.4% 0.8% 0.4%
x264 [info]: ref B L1: 93.9% 6.1%
x264 [info]: kb/s:2636.67
encoded 151540 frames, 2.78 fps, 2636.67 kb/s
GeneralComplete name : D:\Torrents\Download\Oxotniki_za_golovami_2016_KinoGadget.mp4Format : MPEG-4Format profile : Base MediaCodec ID : isom (isom/avc1/iso6)File size : 2.04 GiBDuration : 1 h 45 minOverall bit rate mode : VariableOverall bit rate : 2 773 kb/sPerformer : Щин Тхэ-раDirector : Щин Тхэ-раActor : Мин Хо Ли (I) / Уоллес Чун / Тиффани Тан / Карена Нг / Фан Сю-Вон / Луис Фань / Jones Jeremy / Тан ЯньScreenplay by : Эдмонд ВонProducer : Samuel Yeunju Ha / Kai Li / Raymond WongGenre : Action, Comedy, RomanceContentType : Short FilmRecorded date : 2016Encoded date : UTC 2016-11-18 02:27:48Tagged date : UTC 2016-11-20 10:46:26Cover : YesLongDescription : Двое бывших сотрудника Интерпола теперь работают частными телохранителями. Они принимают новый заказ — охранять осведомителя, который располагает ценной информацией касательно взрывов в известных отелях. Но вместо встречи с клиентом они попадают в ловушку и становятся подозреваемыми в этих самых взрывах.HDVideo : Yes

VideoID : 1Format : AVCFormat/Info : Advanced Video CodecFormat profile : [email protected] settings, CABAC : YesFormat settings, ReFrames : 8 framesCodec ID : avc1Codec ID/Info : Advanced Video CodingDuration : 1 h 45 minBit rate : 2 637 kb/sMaximum bit rate : 17.5 Mb/sWidth : 1 280 pixelsHeight : 536 pixelsDisplay aspect ratio : 2.40:1Frame rate mode : ConstantFrame rate : 24.000 FPSColor space : YUVChroma subsampling : 4:2:0Bit depth : 8 bitsScan type : ProgressiveBits/(Pixel*Frame) : 0.160Stream size : 1.94 GiB (95%)Writing library : x264 core 148 r2638 7599210Encoding settings : cabac=1 / ref=8 / deblock=1:-1:-1 / analyse=0x3:0x133 / me=umh / subme=7 / psy=1 / psy_rd=1.00:0.15 / mixed_ref=1 / me_range=24 / chroma_me=1 / trellis=2 / 8x8dct=1 / cqm=0 / deadzone=21,11 / fast_pskip=1 / chroma_qp_offset=-3 / threads=3 / lookahead_threads=1 / sliced_threads=0 / nr=0 / decimate=1 / interlaced=0 / bluray_compat=0 / constrained_intra=0 / bframes=6 / b_pyramid=2 / b_adapt=2 / b_bias=0 / direct=3 / weightb=1 / open_gop=0 / weightp=2 / keyint=240 / keyint_min=24 / scenecut=40 / intra_refresh=0 / rc_lookahead=60 / rc=crf / mbtree=1 / crf=20.0 / qcomp=0.60 / qpmin=0 / qpmax=69 / qpstep=4 / ip_ratio=1.40 / aq=1:1.00Encoded date : UTC 2016-11-18 02:27:48Tagged date : UTC 2016-11-18 02:29:08

AudioID : 2Format : AACFormat/Info : Advanced Audio CodecFormat profile : LCCodec ID : 40Duration : 1 h 45 minBit rate mode : VariableBit rate : 128 kb/sMaximum bit rate : 135 kb/sChannel(s) : 2 channelsChannel positions : Front: L RSampling rate : 48.0 kHzFrame rate : 46.875 FPS (1024 spf)Compression mode : LossyStream size : 96.3 MiB (5%)Title : L2 [FSG COMEBACK]Language : RussianEncoded date : UTC 2016-11-17 11:11:51Tagged date : UTC 2016-11-18 02:29:08

Menu00:00:00.000 : 00:00:00.00000:04:30.750 : 00:04:30.75000:08:05.958 : 00:08:05.95800:17:09.083 : 00:17:09.08300:22:08.625 : 00:22:08.62500:26:25.250 : 00:26:25.25000:30:49.667 : 00:30:49.66700:34:34.667 : 00:34:34.66700:41:04.208 : 00:41:04.20800:45:10.833 : 00:45:10.83300:49:47.917 : 00:49:47.91700:57:00.792 : 00:57:00.79201:01:53.542 : 01:01:53.54201:06:17.542 : 01:06:17.54201:10:50.542 : 01:10:50.54201:14:25.000 : 01:14:25.00001:18:29.458 : 01:18:29.45801:24:22.875 : 01:24:22.87501:29:15.417 : 01:29:15.41701:36:29.292 : 01:36:29.292
<a href="tracker.php?rid=39840292" class="postLink"> </a>

Трекер:  [ 20-Ноя-2016 14:30 ]

  

Скачать .torrent

Размер .torrent файла 10 KB


Размер: 2.04 GB
Хэш (hash) релиза: e84adff38318c624285118501a3fab4a7734786d

Еще никто не оставлял запись к записи скачать торрент [VIDEO] Охотники за головами Bounty Hunters . Будь первым!

!Обратная связь