The North Water | Lethal Weapon | 1x49 Dragon Ball Super

Скачать через торрент [VIDEO] Голодные игры The Hunger Games бесплатно русская версия torrent активатор

Статистика раздачи
Размер:  2.94 GB   |    Зарегистрирован:  1 год 8 месяцев   |    .torrent скачан:  33 раза   |   
Раздают:  1  
   
загрузка...
 
Автор Сообщение

Galfimbul

avatar Galfimbul


Голодные игры / The Hunger Games
«Весь мир смотрит»
Дата выхода: 2012
Оригинальное название: The Hunger Games
Страна: США
Жанр: фантастика, триллер, драма, приключения
Возраст: 12+

Режиссер: Гэри Росс / Gary Ross

В ролях: Дженнифер Лоуренс, Лиам Хемсворт, Джош Хатчерсон, Элизабет Бэнкс, Вуди Харрельсон, Стэнли Туччи, Ленни Кравиц, Уэс Бентли, Дональд Сазерленд, Уиллоу Шилдс, Сандра Эллис Лэфферти, Паула Малкомсон, Рода Гриффис, Сандино Мойя, Рэйко Боуман, Дуэйн Бойд, Энтони Рейнольдс

Описание: Будущее. Деспотичное государство ежегодно устраивает показательные игры на выживание, за которыми в прямом эфире следит весь мир. Жребий участвовать в Играх выпадает юной Китнисс и тайно влюбленному в нее Питу. Они знакомы с детства, но теперь должны стать врагами. Ведь по нерушимому закону Голодных игр победить может только один из 24 участников. Судьям не важно кто выиграет, главное — зрелище. И на этот раз зрелище будет незабываемым.

Продолжительность: 02:22:33
Перевод: Дублированный [Blu-ray]
Оригинальная дорожка: нет

Автор рипа:

Качество видео: BDRip Исходник: Blu-Ray Remux (1080p) Формат: mp4
Видео кодек: MPEG-4 AVC Аудио кодек: AAC
Видео: 1280x532 at 23.976 fps, AVC at 2 819 kbps avg, 0.173 bit/pixel
Аудио №1 Rus: 48.0 KHz, AAC, 2 ch, 128.0 Kbps
Субтитры: нет
Навигация по главам: нет
avs [info]: 1280x532p 1:1 @ 24000/1001 fps (cfr)
x264 [info]: using SAR=1/1
x264 [info]: using cpu capabilities: MMX2 SSE2Fast SSSE3 Cache64
x264 [info]: profile High, level 4.1
x264 [info]: frame I:1563 Avg QP:16.72 size:114259
x264 [info]: frame P:44010 Avg QP:20.63 size: 28806
x264 [info]: frame B:159502 Avg QP:22.00 size: 9825
x264 [info]: consecutive B-frames: 2.8% 4.2% 7.6% 12.5% 14.1% 41.0% 5.0% 2.2% 3.7% 1.6% 2.4% 1.3% 1.6%
x264 [info]: mb I I16..4: 13.0% 66.9% 20.2%
x264 [info]: mb P I16..4: 2.4% 16.8% 1.9% P16..4: 41.3% 13.9% 11.9% 0.4% 0.2% skip:11.2%
x264 [info]: mb B I16..4: 0.1% 2.0% 0.3% B16..8: 41.9% 6.4% 1.3% direct: 5.9% skip:42.0% L0:44.6% L1:49.2% BI: 6.1%
x264 [info]: 8x8 transform intra:79.1% inter:72.4%
x264 [info]: direct mvs spatial:99.8% temporal:0.2%
x264 [info]: coded y,uvDC,uvAC intra: 78.1% 81.1% 50.2% inter: 22.1% 26.6% 3.9%
x264 [info]: i16 v,h,dc,p: 26% 14% 9% 51%
x264 [info]: i8 v,h,dc,ddl,ddr,vr,hd,vl,hu: 16% 12% 27% 6% 8% 8% 8% 7% 8%
x264 [info]: i4 v,h,dc,ddl,ddr,vr,hd,vl,hu: 34% 12% 12% 6% 9% 8% 8% 6% 6%
x264 [info]: i8c dc,h,v,p: 56% 17% 18% 9%
x264 [info]: Weighted P-Frames: Y:3.7% UV:1.8%
x264 [info]: ref P L0: 48.8% 11.7% 17.7% 6.2% 5.0% 3.4% 3.2% 1.8% 1.9% 0.3% 0.0%
x264 [info]: ref B L0: 77.3% 10.8% 5.1% 2.5% 1.7% 1.5% 0.8% 0.3%
x264 [info]: ref B L1: 93.4% 6.6%
x264 [info]: kb/s:2818.55
encoded 205075 frames, 1.81 fps, 2818.55 kb/s
GeneralComplete name : D:\Torrents\Download\Golodnye_igry_2012_KinoGadget.mp4Format : MPEG-4Format profile : Base MediaCodec ID : isom (isom)File size : 2.94 GiBDuration : 2 h 22 minOverall bit rate mode : VariableOverall bit rate : 2 954 kb/sMovie name : Голодные игры | KinogadgetPerformer : Гэри РоссDirector : Гэри РоссActor : Дженнифер Лоуренс / Лиам Хемсворт / Джош Хатчерсон / Элизабет Бэнкс / Вуди Харрельсон / Стэнли Туччи / Ленни Кравиц / Уэс Бентли / Дональд Сазерленд / Уиллоу Шилдс / Сандра Эллис ЛэффертиScreenplay by : Сьюзен Коллинз / Гэри Росс / Билли РэйProducer : Нина Джейкобсон / Джон Килик / Диана АльварезGenre : Adventure, Drama, ThrillerContentType : Short FilmRecorded date : 2012Encoded date : UTC 2016-11-17 05:47:59Tagged date : UTC 2016-11-17 07:06:28Cover : YesContentRating : mpaa|PG-13|300|LongDescription : Будущее. Деспотичное государство ежегодно устраивает показательные игры на выживание, за которыми в прямом эфире следит весь мир. Жребий участвовать в Играх выпадает юной Китнисс и тайно влюбленному в нее Питу. Они знакомы с детства, но теперь должны стать врагами. Ведь по нерушимому закону Голодных игр победить может только один из 24 участников. Судьям не важно кто выиграет, главное — зрелище. И на этот раз зрелище будет незабываемым.HDVideo : Yes

VideoID : 1Format : AVCFormat/Info : Advanced Video CodecFormat profile : [email protected] settings, CABAC : YesFormat settings, ReFrames : 9 framesCodec ID : avc1Codec ID/Info : Advanced Video CodingDuration : 2 h 22 minBit rate : 2 819 kb/sMaximum bit rate : 12.7 Mb/sWidth : 1 280 pixelsHeight : 532 pixelsDisplay aspect ratio : 2.40:1Frame rate mode : ConstantFrame rate : 23.976 (24000/1001) FPSColor space : YUVChroma subsampling : 4:2:0Bit depth : 8 bitsScan type : ProgressiveBits/(Pixel*Frame) : 0.173Stream size : 2.81 GiB (95%)Writing library : x264 core 148 r2638 7599210Encoding settings : cabac=1 / ref=9 / deblock=1:-1:-1 / analyse=0x3:0x133 / me=umh / subme=7 / psy=1 / psy_rd=1.00:0.15 / mixed_ref=1 / me_range=24 / chroma_me=1 / trellis=2 / 8x8dct=1 / cqm=0 / deadzone=21,11 / fast_pskip=1 / chroma_qp_offset=-3 / threads=3 / lookahead_threads=1 / sliced_threads=0 / nr=0 / decimate=1 / interlaced=0 / bluray_compat=0 / constrained_intra=0 / bframes=12 / b_pyramid=2 / b_adapt=2 / b_bias=0 / direct=3 / weightb=1 / open_gop=0 / weightp=2 / keyint=240 / keyint_min=23 / scenecut=40 / intra_refresh=0 / rc_lookahead=60 / rc=crf / mbtree=1 / crf=20.0 / qcomp=0.60 / qpmin=0 / qpmax=69 / qpstep=4 / ip_ratio=1.40 / aq=1:1.00Encoded date : UTC 2016-11-16 20:35:19Tagged date : UTC 2016-11-17 05:50:14

AudioID : 2Format : AACFormat/Info : Advanced Audio CodecFormat profile : LCCodec ID : 40Duration : 2 h 22 minBit rate mode : VariableBit rate : 128 kb/sMaximum bit rate : 135 kb/sChannel(s) : 2 channelsChannel positions : Front: L RSampling rate : 48.0 kHzFrame rate : 46.875 FPS (1024 spf)Compression mode : LossyStream size : 131 MiB (4%)Title : Dub [Blu-ray]Language : RussianEncoded date : UTC 2016-11-17 05:09:26Tagged date : UTC 2016-11-17 05:50:14
<a href="tracker.php?rid=39840292" class="postLink"> </a>

Трекер:  [ 17-Ноя-2016 11:30 ]

  

Скачать .torrent

Размер .torrent файла 15 KB


Размер: 2.94 GB
Хэш (hash) релиза: 4a26a17aecaed9a2099d684afc586b0dcb608f77

Еще никто не оставлял запись к записи скачать торрент [VIDEO] Голодные игры The Hunger Games . Будь первым!

!Обратная связь