One Direction - Kiss You. | The Sims 4: Deluxe Edition [v 1.31.37.1020] (2014) PC | RePack от xatab | Chapter 167

Скачать через торрент [VIDEO] Экипаж бесплатно русская версия torrent активатор

Статистика раздачи
Размер:  2.66 GB   |    Зарегистрирован:  1 год 8 месяцев   |    .torrent скачан:  101 раз   |   
Раздают:  1  
   
загрузка...
 
Автор Сообщение

Galfimbul

avatar Galfimbul


Экипаж
Год выпуска: 21 апреля 2016
Оригинальное название: Экипаж
Страна: Россия
Жанр: драма, приключения, триллер
Возраст: 6+

Режиссер: Николай Лебедев

В ролях: Данила Козловский, Владимир Машков, Агне Грудите, Сергей Кемпо, Катерина Шпица, Сергей Шакуров, Сергей Газаров, Елена Яковлева, Алёна Бабенко, Сергей Романович, Ксения Георгиади, Ирина Лачина, Вячеслав Разбегаев, Владимир Яглыч, Василий Мищенко, Дмитрий Золотухин, Ирина Пегова, Иван Агапов, Ольга Литвинова, Ирина Низина

Описание: История талантливого молодого летчика Алексея Гущина. Он не признает авторитетов, предпочитая поступать в соответствии с личным кодексом чести. За невыполнение абсурдного приказа его выгоняют из военной авиации, и только чудом он получает шанс летать на гражданских самолетах.

Гущин начинает свою летную жизнь сначала. Его наставник — командир воздушного судна — суровый и принципиальный Леонид Зинченко. Его коллега — второй пилот, неприступная красавица Александра. Отношения складываются непросто. Но на грани жизни и смерти, когда земля уходит из-под ног, вокруг — огонь и пепел и только в небе есть спасение, Гущин показывает все, на что он способен. Только вместе экипаж сможет совершить подвиг и спасти сотни жизней.

Продолжительность: 02:17:04
Перевод: Оригинал (русский)

Автор рипа:

Качество видео: BDRip Исходник: Blu-Ray (1080p) Формат: mp4
Видео кодек: MPEG-4 AVC Аудио кодек: AAC
Видео: 1280x548 (2.35:1) at 23.976 fps, AVC at 2 640 kbps avg, 0.157 bit/pixel
Аудио №1 Rus: 48.0 KHz, AAC, 2 ch, 128.0 Kbps
Субтитры: нет
Навигация по главам: нет
avs [info]: 1280x548p 1:1 @ 24/1 fps (cfr)
x264 [info]: using SAR=1/1
x264 [info]: using cpu capabilities: MMX2 SSE2Fast SSSE3 Cache64
x264 [info]: profile High, level 4.1
x264 [info]: frame I:1555 Avg QP:17.18 size: 69863
x264 [info]: frame P:49354 Avg QP:20.57 size: 24009
x264 [info]: frame B:146469 Avg QP:22.28 size: 9700
x264 [info]: consecutive B-frames: 3.6% 4.2% 9.3% 35.2% 19.1% 19.6% 4.5% 1.2% 1.0% 1.6% 0.8%
x264 [info]: mb I I16..4: 7.8% 76.0% 16.1%
x264 [info]: mb P I16..4: 5.0% 21.9% 1.7% P16..4: 42.3% 13.7% 8.7% 0.3% 0.1% skip: 6.4%
x264 [info]: mb B I16..4: 0.6% 2.4% 0.2% B16..8: 39.2% 8.8% 1.5% direct: 9.5% skip:37.8% L0:43.8% L1:47.5% BI: 8.7%
x264 [info]: 8x8 transform intra:76.2% inter:83.6%
x264 [info]: direct mvs spatial:99.9% temporal:0.1%
x264 [info]: coded y,uvDC,uvAC intra: 62.2% 81.9% 47.7% inter: 23.4% 39.4% 6.6%
x264 [info]: i16 v,h,dc,p: 19% 26% 5% 50%
x264 [info]: i8 v,h,dc,ddl,ddr,vr,hd,vl,hu: 21% 16% 22% 5% 7% 8% 7% 7% 6%
x264 [info]: i4 v,h,dc,ddl,ddr,vr,hd,vl,hu: 32% 18% 9% 5% 9% 8% 8% 6% 4%
x264 [info]: i8c dc,h,v,p: 49% 22% 20% 9%
x264 [info]: Weighted P-Frames: Y:6.1% UV:4.5%
x264 [info]: ref P L0: 45.8% 12.5% 16.2% 6.3% 5.0% 3.7% 3.2% 2.0% 1.8% 1.6% 1.5% 0.4% 0.0%
x264 [info]: ref B L0: 76.0% 10.0% 5.0% 2.6% 1.9% 1.6% 1.3% 0.8% 0.5% 0.3%
x264 [info]: ref B L1: 93.8% 6.2%
x264 [info]: kb/s:2640.35
encoded 197378 frames, 1.45 fps, 2640.36 kb/s
GeneralComplete name : D:\Torrents\Download\Ekipazh_2016_KinoGadget.mp4Format : MPEG-4Format profile : Base MediaCodec ID : isom (isom/avc1/iso6)File size : 2.66 GiBDuration : 2 h 17 minOverall bit rate mode : VariableOverall bit rate : 2 776 kb/sMovie name : Экипаж | KinoGadgetPerformer : Николай ЛебедевDirector : Николай ЛебедевActor : Данила Козловский / Владимир Машков / Агне Грудите / Сергей Кемпо / Катерина Шпица / Сергей Шакуров / Сергей Газаров / Елена Яковлева / Алёна Бабенко / Сергей Романович / Ксения Георгиади / Ирина Лачина / Вячеслав Разбегаев / Владимир ЯглычScreenplay by : Тихон Корнев / Николай Куликов / Николай ЛебедевProducer : Леонид Верещагин / Антон Златопольский / Никита МихалковGenre : Adventure, Drama, ThrillerContentType : Short FilmRecorded date : 2016Encoded date : UTC 2016-11-14 23:37:17Tagged date : UTC 2016-11-15 09:17:08Cover : YesContentRating : mpaa|PG|200|LongDescription : Жизненный путь молодого пилота Алексея Гущина пересекается с Леонидом Зинченко – опытным командиром экипажа, способным принимать нестандартные решения. Оказавшись в смертельно опасной ситуации, где раскрываются истинные человеческие характеры, им предстоит сделать единственно правильный выборHDVideo : Yes

VideoID : 1Format : AVCFormat/Info : Advanced Video CodecFormat profile : [email protected] settings, CABAC : YesFormat settings, ReFrames : 11 framesCodec ID : avc1Codec ID/Info : Advanced Video CodingDuration : 2 h 17 minBit rate : 2 640 kb/sMaximum bit rate : 16.1 Mb/sWidth : 1 280 pixelsHeight : 548 pixelsDisplay aspect ratio : 2.35:1Frame rate mode : ConstantFrame rate : 24.000 FPSColor space : YUVChroma subsampling : 4:2:0Bit depth : 8 bitsScan type : ProgressiveBits/(Pixel*Frame) : 0.157Stream size : 2.53 GiB (95%)Writing library : x264 core 148 r2638 7599210Encoding settings : cabac=1 / ref=11 / deblock=1:-1:-1 / analyse=0x3:0x133 / me=umh / subme=7 / psy=1 / psy_rd=1.00:0.15 / mixed_ref=1 / me_range=24 / chroma_me=1 / trellis=2 / 8x8dct=1 / cqm=0 / deadzone=21,11 / fast_pskip=1 / chroma_qp_offset=-3 / threads=3 / lookahead_threads=1 / sliced_threads=0 / nr=0 / decimate=1 / interlaced=0 / bluray_compat=0 / constrained_intra=0 / bframes=10 / b_pyramid=2 / b_adapt=2 / b_bias=0 / direct=3 / weightb=1 / open_gop=0 / weightp=2 / keyint=240 / keyint_min=24 / scenecut=40 / intra_refresh=0 / rc_lookahead=60 / rc=crf / mbtree=1 / crf=20.0 / qcomp=0.60 / qpmin=0 / qpmax=69 / qpstep=4 / ip_ratio=1.40 / aq=1:1.00Encoded date : UTC 2016-11-14 23:37:17Tagged date : UTC 2016-11-14 23:52:21

AudioID : 2Format : AACFormat/Info : Advanced Audio CodecFormat profile : LCCodec ID : 40Duration : 2 h 17 minBit rate mode : VariableBit rate : 128 kb/sMaximum bit rate : 135 kb/sChannel(s) : 2 channelsChannel positions : Front: L RSampling rate : 48.0 kHzFrame rate : 46.875 FPS (1024 spf)Compression mode : LossyStream size : 125 MiB (5%)Title : Original [License BD RUS]Language : RussianEncoded date : UTC 2016-11-13 09:13:32Tagged date : UTC 2016-11-14 23:52:21
<a href="tracker.php?rid=39840292" class="postLink"> </a>

Трекер:  [ 15-Ноя-2016 12:30 ]

  

Скачать .torrent

Размер .torrent файла 13 KB


Размер: 2.66 GB
Хэш (hash) релиза: c85f4f64d57047805f15a6472d4dcc5528c06927

Торренты, похожие на [VIDEO] Экипаж скачать торрент

Форум Название Автор Размер S L Добавлен
Видео (Фильмы/Клипы) ·· [VIDEO] Экипаж / Серии: 1-2 из 2 (Александр Митта) [1979, триллер, драма, мелодрама, DVDRip] [MP4, 640x] Galfimbul 828291918790 MB 0 0 1417543788

21:09

2-Дек-14

Видео (Фильмы/Клипы) ·· [VIDEO] Экипаж / Flight (Роберт Земекис / Robert Zemeckis) [2012, драма, HDRip] [MP4, 480x] Galfimbul 423704173404 MB 0 0 1361722191

19:09

24-Фев-13

Еще никто не оставлял запись к записи скачать торрент [VIDEO] Экипаж . Будь первым!

!Обратная связь