Absolute Duo | Christian Bujeau | rafahack

Скачать через торрент [SERIAL] Мешок с костями Bag of Bones бесплатно русская версия torrent активатор

Статистика раздачи
Размер:  1.37 GB   |    Зарегистрирован:  1 год 8 месяцев   |    .torrent скачан:  25 раз   |   
Раздают:  1  
   
загрузка...
 
Автор Сообщение

Galfimbul

avatar Galfimbul


Мешок с костями / Bag of Bones
Год выпуска: 2011
Страна: США
Жанр: ужасы, драма
Продолжительность: 01:19:56 + 01:23:29
Перевод: Профессиональный (дублированный) ТВ3
Режиссер: Мик Гэррис / Mick Garris
В ролях: Пирс Броснан, Мелисса Джордж, Мэтт Фрюэр, Джейсон Пристли, Аннабет Гиш, Аника Нони Роуз, Уильям Шэллерт, Кэйтлин Кармайкл, Гари Леверт
Описание: После гибели жены писатель Майк Нунен отправляется к их старому дому возле озера «Темный след», где она провела последние три года. Там он пытается найти вдохновение и разгадать историю местной девочки, но его начинают преследовать реалистические кошмары. Его жена пытается его уберечь, но кроме неё с потустороннего мира к Майку тянутся и другие…
Качество: WEB-DLRip
Формат: MP4
Видео: MPEG-4 Visual, 640x360 (16:9), 1080 Kbps, 23,976 fps
Аудио: Русский, AAC, 2 ch, 128 Kbps, 48 KHz
ОбщееПолное имя : D:\Раздачи\Bag.of.Bones.s01.WEB-DLRip.640x\Bag.of.Bones.s01e01.Part.One.WEB-DLRip.640x.mp4Формат : MPEG-4Профиль формата : Base Media / Version 2Идентификатор кодека : mp42 (isom/mp42/3gp5)Размер файла : 686 МбайтПродолжительность : 1 ч. 19 м.Режим общего битрейта : ПеременныйОбщий поток : 1200 Кбит/секДата кодирования : UTC 2016-11-13 05:12:57Дата пометки : UTC 2016-11-13 05:12:57

ВидеоИдентификатор : 201Формат : MPEG-4 VisualПрофиль формата : [email protected]Параметр BVOP формата : НетПараметр QPel формата : НетПараметр GMC формата : Без точки переходаПараметр матрицы формата : Default (H.263)Идентификатор кодека : 20Продолжительность : 1 ч. 19 м.Вид битрейта : ПеременныйБитрейт : 1072 Кбит/секМаксимальный битрейт : 13,3 Мбит/секШирина : 640 пикселейВысота : 360 пикселейСоотношение сторон : 16:9Режим частоты кадров : ПостоянныйЧастота кадров : 23,976 (24000/1001) кадра/секЦветовое пространство : YUVСубдискретизация насыщенности : 4:2:0Битовая глубина : 8 битТип развёртки : ПрогрессивнаяМетод сжатия : С потерямиБит/(Пиксели*Кадры) : 0.194Размер потока : 613 Мбайт (89%)Библиотека кодирования : Lavc52.30.2Дата кодирования : UTC 2016-11-13 05:12:57Дата пометки : UTC 2016-11-13 05:14:04

АудиоИдентификатор : 101Формат : AACФормат/Информация : Advanced Audio CodecПрофиль формата : LCИдентификатор кодека : 40Продолжительность : 1 ч. 19 м.Вид битрейта : ПеременныйБитрейт : 125 Кбит/секМаксимальный битрейт : 257 Кбит/секКаналы : 2 каналаРасположение каналов : Front: L RЧастота : 48,0 КГцЧастота кадров : 46,875 кадров/сек (1024 spf)Метод сжатия : С потерямиРазмер потока : 71,7 Мбайт (10%)Дата кодирования : UTC 2016-11-13 05:13:53Дата пометки : UTC 2016-11-13 05:14:04

Прочее #1Идентификатор : 2Тип : Object descriptionФормат : SystemИдентификатор кодека : 1Продолжительность : 1 с. 0 мс.Дата кодирования : UTC 2016-11-13 05:14:04Дата пометки : UTC 2016-11-13 05:14:04

Прочее #2Идентификатор : 1Тип : Scene descriptionФормат : System CoreИдентификатор кодека : 2Продолжительность : 1 с. 0 мс.Дата кодирования : UTC 2016-11-13 05:14:04Дата пометки : UTC 2016-11-13 05:14:04


Трекер:  [ 14-Ноя-2016 11:30 ]

  

Скачать .torrent

Размер .torrent файла 14 KB


Размер: 1.37 GB
Хэш (hash) релиза: 1dab54093baa357ac0920b128069901d060fa5bb

Еще никто не оставлял запись к записи скачать торрент [SERIAL] Мешок с костями Bag of Bones . Будь первым!

!Обратная связь