Sarah Dugdale | GoPro Hero 5 Black: How To Use The GoPro Hero 5 Black | [Action] From Dusk Till Dawn S01 German DL 720p BluRay x264 - iNTENTiON

Скачать через торрент [VIDEO] Девять жизней Nine Lives бесплатно русская версия torrent активатор

Статистика раздачи
Размер:  1.55 GB   |    Зарегистрирован:  1 год 8 месяцев   |    .torrent скачан:  41 раз   |   
Раздают:  1  
   
загрузка...
 
Автор Сообщение

Galfimbul

avatar Galfimbul


Девять жизней / Nine Lives
«Kevin Spacey as you've never seen him before»
Дата выхода: 2016
Оригинальное название: Nine Lives
Страна: Франция, Китай
Жанр: фэнтези, комедия, семейный
Возраст: 6+

Режиссер: Барри Зонненфельд / Barry Sonnenfeld

В ролях: Кевин Спейси, Дженнифер Гарнер, Робби Амелл, Шерил Хайнс, Марк Консуэлос, Малина Вайсман, Кристофер Уокен, Талита Бейтман, Тедди Сирс, Джей Пэттерсон

Описание: Том Бренд — миллиардер-трудоголик с чудинкой. Он с головой погружен в работу и немного выпал из семейной жизни — даже подарок дочери он покупает в последний момент. Ребекка мечтает о настоящем коте, и как бы Том ни презирал животных, он отправляется в зоомагазин, где выбирает самого роскошного кота по кличке Мистер Пушистые Штаны. В спешке на праздник дочери Том попадает в аварию, а очнувшись, обнаруживает себя в теле этого самого кота. Пока Том-человек отсыпается в больнице, Том-Пушистые Штаны вынужден на собственной шкуре испытать все прелести кошачьей жизни и вернуть любовь семьи, чтобы не остаться навсегда в роли питомца. Благо, жена и дочь принимают кота как родного. Но как заставить их разглядеть в Мистере Пушистые Штаны раскаявшегося отца семейства?

Продолжительность: 01:26:50
Перевод: Дублированный [iTunes]
Оригинальная дорожка: нет

Автор рипа:

Качество видео: BDRip Исходник: Blu-Ray Remux (1080p) Формат: mp4
Видео кодек: MPEG-4 AVC Аудио кодек: AAC
Видео: 1280x692 (1.85:1) at 23.976 fps, AVC at 2 420 kbps avg, 0.114 bit/pixel
Аудио №1 Rus: 48.0 KHz, AAC, 2 ch, 128.0 Kbps
Субтитры: нет
Навигация по главам: есть
avs [info]: 1280x692p 1:1 @ 24000/1001 fps (cfr)
x264 [info]: using SAR=1/1
x264 [info]: using cpu capabilities: MMX2 SSE2Fast SSSE3 Cache64
x264 [info]: profile High, level 4.1
x264 [info]: frame I:1438 Avg QP:16.42 size:147085
x264 [info]: frame P:25802 Avg QP:19.61 size: 28039
x264 [info]: frame B:97691 Avg QP:21.95 size: 6566
x264 [info]: consecutive B-frames: 2.2% 1.1% 5.4% 19.9% 16.1% 48.4% 6.9%
x264 [info]: mb I I16..4: 10.9% 66.3% 22.8%
x264 [info]: mb P I16..4: 1.9% 6.9% 1.0% P16..4: 42.5% 13.2% 14.4% 0.4% 0.2% skip:19.6%
x264 [info]: mb B I16..4: 0.1% 0.6% 0.1% B16..8: 33.4% 4.1% 0.8% direct: 3.9% skip:56.9% L0:44.1% L1:48.2% BI: 7.7%
x264 [info]: 8x8 transform intra:69.3% inter:69.0%
x264 [info]: direct mvs spatial:99.9% temporal:0.1%
x264 [info]: coded y,uvDC,uvAC intra: 69.1% 85.1% 67.0% inter: 10.4% 23.8% 10.1%
x264 [info]: i16 v,h,dc,p: 40% 21% 7% 32%
x264 [info]: i8 v,h,dc,ddl,ddr,vr,hd,vl,hu: 23% 16% 20% 5% 7% 8% 7% 7% 7%
x264 [info]: i4 v,h,dc,ddl,ddr,vr,hd,vl,hu: 33% 15% 11% 5% 8% 8% 7% 6% 6%
x264 [info]: i8c dc,h,v,p: 52% 18% 21% 9%
x264 [info]: Weighted P-Frames: Y:4.4% UV:1.4%
x264 [info]: ref P L0: 47.9% 10.8% 18.6% 5.9% 5.5% 3.3% 3.8% 1.9% 2.0% 0.3% 0.0%
x264 [info]: ref B L0: 76.6% 10.8% 5.6% 2.4% 1.7% 1.4% 1.2% 0.3%
x264 [info]: ref B L1: 93.0% 7.0%
x264 [info]: kb/s:2420.31
encoded 124931 frames, 2.61 fps, 2420.31 kb/s
GeneralComplete name : D:\Torrents\Download\Devyat_zhiznej_2016_KinoGadget.mp4Format : MPEG-4Format profile : Base MediaCodec ID : isom (isom)File size : 1.55 GiBDuration : 1 h 26 minOverall bit rate mode : VariableOverall bit rate : 2 556 kb/sMovie name : Девять жизней | KinoGadgetPerformer : Барри ЗонненфельдDirector : Барри ЗонненфельдActor : Кевин Спейси / Дженнифер Гарнер / Робби Амелл / Шерил Хайнс / Марк Консуэлос / Малина Вайсман / Кристофер Уокен / Талита Бейтман / Тедди Сирс / Джей ПэттерсонScreenplay by : Гвин Лури / Мэтт Аллен / Калеб УилсонProducer : Лиза Эллзи / Энри Денебур / Тьерри ГилморGenre : Comedy, FamilyContentType : Short FilmRecorded date : 2016Encoded date : UTC 2016-11-13 05:37:30Tagged date : UTC 2016-11-13 08:08:58Cover : YesContentRating : mpaa|PG|200|LongDescription : Том Бренд — миллиардер-трудоголик с чудинкой. Он с головой погружен в работу и немного выпал из семейной жизни — даже подарок дочери он покупает в последний момент. Ребекка мечтает о настоящем коте, и как бы Том ни презирал животных, он отправляется в зоомагазин, где выбирает самого роскошного кота по кличке Мистер Пушистые Штаны. В спешке на праздник дочери Том попадает в аварию, а очнувшись, обнаруживает себя в теле этого самого кота.HDVideo : Yes

VideoID : 1Format : AVCFormat/Info : Advanced Video CodecFormat profile : [email protected] settings, CABAC : YesFormat settings, ReFrames : 9 framesCodec ID : avc1Codec ID/Info : Advanced Video CodingDuration : 1 h 26 minBit rate : 2 420 kb/sMaximum bit rate : 17.6 Mb/sWidth : 1 280 pixelsHeight : 692 pixelsDisplay aspect ratio : 1.85:1Frame rate mode : ConstantFrame rate : 23.976 (24000/1001) FPSColor space : YUVChroma subsampling : 4:2:0Bit depth : 8 bitsScan type : ProgressiveBits/(Pixel*Frame) : 0.114Stream size : 1.47 GiB (95%)Writing library : x264 core 148 r2638 7599210Encoding settings : cabac=1 / ref=9 / deblock=1:-1:-1 / analyse=0x3:0x133 / me=umh / subme=7 / psy=1 / psy_rd=1.00:0.15 / mixed_ref=1 / me_range=24 / chroma_me=1 / trellis=2 / 8x8dct=1 / cqm=0 / deadzone=21,11 / fast_pskip=1 / chroma_qp_offset=-3 / threads=3 / lookahead_threads=1 / sliced_threads=0 / nr=0 / decimate=1 / interlaced=0 / bluray_compat=0 / constrained_intra=0 / bframes=6 / b_pyramid=2 / b_adapt=2 / b_bias=0 / direct=3 / weightb=1 / open_gop=0 / weightp=2 / keyint=240 / keyint_min=23 / scenecut=40 / intra_refresh=0 / rc_lookahead=60 / rc=crf / mbtree=1 / crf=20.0 / qcomp=0.60 / qpmin=0 / qpmax=69 / qpstep=4 / ip_ratio=1.40 / aq=1:1.00Encoded date : UTC 2016-11-13 01:11:53Tagged date : UTC 2016-11-13 05:38:08

AudioID : 2Format : AACFormat/Info : Advanced Audio CodecFormat profile : LCCodec ID : 40Duration : 1 h 26 minBit rate mode : VariableBit rate : 128 kb/sMaximum bit rate : 135 kb/sChannel(s) : 2 channelsChannel positions : Front: L RSampling rate : 48.0 kHzFrame rate : 46.875 FPS (1024 spf)Compression mode : LossyStream size : 79.4 MiB (5%)Title : Dub [iTunes]Language : RussianEncoded date : UTC 2016-11-12 19:06:18Tagged date : UTC 2016-11-13 05:38:08

Menu00:00:00.000 : Chapter 100:09:57.471 : Chapter 200:20:21.011 : Chapter 300:30:52.851 : Chapter 400:39:22.276 : Chapter 500:49:29.299 : Chapter 601:00:11.774 : Chapter 701:09:54.648 : Chapter 801:19:27.888 : Chapter 9
<a href="tracker.php?rid=39840292" class="postLink"> </a>

Трекер:  [ 13-Ноя-2016 11:30 ]

  

Скачать .torrent

Размер .torrent файла 16 KB


Размер: 1.55 GB
Хэш (hash) релиза: 6e04e0da68640167439fcf66c287420654924bc2

Еще никто не оставлял запись к записи скачать торрент [VIDEO] Девять жизней Nine Lives . Будь первым!

!Обратная связь