Timeless | Jay Sean – Cherry Papers | Chapter 336 : To put It Simply

Скачать через торрент [VIDEO] Светская жизнь Café Society бесплатно русская версия torrent активатор

Статистика раздачи
Размер:  1.81 GB   |    Зарегистрирован:  1 год 8 месяцев   |    .torrent скачан:  28 раз   |   
Раздают:  1  
   
загрузка...
 
Автор Сообщение

Galfimbul

avatar Galfimbul


Светская жизнь / Café Society
«Anyone who is anyone will be seen at Café Society»
Год выпуска: 11 мая 2016
Оригинальное название: Café Society
Страна: США
Жанр: драма, мелодрама, комедия
Возраст: 18+

Режиссер: Вуди Аллен / Woody Allen

В ролях: Дженни Берлин, Стив Карелл, Джесси Айзенберг, Кристен Стюарт, Блейк Лайвли, Паркер Поузи, Кори Столл, Кен Стотт, Анна Кэмп, Пол Шнайдер

Описание: 1930-е годы. Молодой человек приезжает из Нью-Йорка в Голливуд в надежде найти работу в киноиндустрии. В Лос-Анджелесе он влюбляется и обнаруживает себя в самом центре водоворота бурной светской жизни и событий, определивших дух того времени.

Продолжительность: 01:36:05
Перевод:Дублированный [русский iTunes, украинский iTunes]
Оригинальная дорожка: нет

Качество видео: BDRip Исходник: Blu-Ray Remux (1080p) Формат: mp4
Видео кодек: MPEG-4 AVC Аудио кодек: AAC
Видео: 1280x640 (2.000) at 23.976 fps, AVC at 2 425 kbps avg, 0.123 bit/pixel
Аудио №1 Rus: 48.0 KHz, AAC, 2 ch, 128.0 Kbps
Аудио №2 Ukr: 48.0 KHz, AAC, 2 ch, 128.0 Kbps
Субтитры: нет
Навигация по главам: нет
avs [info]: 1280x640p 1:1 @ 24000/1001 fps (cfr)
x264 [info]: using SAR=1/1
x264 [info]: using cpu capabilities: MMX2 SSE2Fast SSSE3 Cache64
x264 [info]: profile High, level 4.1
x264 [info]: frame I:821 Avg QP:13.93 size:152194
x264 [info]: frame P:28721 Avg QP:17.89 size: 36771
x264 [info]: frame B:108693 Avg QP:21.45 size: 5214
x264 [info]: consecutive B-frames: 0.8% 0.8% 4.4% 35.3% 19.2% 25.5% 5.7% 3.5% 4.8%
x264 [info]: mb I I16..4: 14.5% 54.6% 30.8%
x264 [info]: mb P I16..4: 0.5% 4.1% 0.9% P16..4: 41.6% 17.1% 19.8% 1.4% 0.8% skip:13.8%
x264 [info]: mb B I16..4: 0.0% 0.2% 0.1% B16..8: 34.7% 4.8% 1.3% direct: 2.1% skip:56.8% L0:40.7% L1:48.0% BI:11.3%
x264 [info]: 8x8 transform intra:68.9% inter:53.7%
x264 [info]: direct mvs spatial:99.7% temporal:0.3%
x264 [info]: coded y,uvDC,uvAC intra: 80.8% 84.0% 66.3% inter: 12.4% 17.0% 5.2%
x264 [info]: i16 v,h,dc,p: 48% 11% 9% 32%
x264 [info]: i8 v,h,dc,ddl,ddr,vr,hd,vl,hu: 21% 14% 19% 5% 8% 9% 8% 9% 8%
x264 [info]: i4 v,h,dc,ddl,ddr,vr,hd,vl,hu: 23% 15% 12% 7% 10% 10% 9% 8% 7%
x264 [info]: i8c dc,h,v,p: 49% 16% 24% 11%
x264 [info]: Weighted P-Frames: Y:2.7% UV:1.3%
x264 [info]: ref P L0: 48.8% 12.7% 16.5% 5.7% 4.9% 3.7% 3.5% 1.9% 2.1% 0.1% 0.0%
x264 [info]: ref B L0: 80.1% 9.5% 4.6% 2.0% 1.5% 1.3% 0.8% 0.3%
x264 [info]: ref B L1: 93.5% 6.5%
x264 [info]: kb/s:2425.08
encoded 138235 frames, 1.96 fps, 2425.08 kb/s
GeneralComplete name : D:\Torrents\Download\Svetskaya_zhizn_2016_KinoGadget.mp4Format : MPEG-4Format profile : Base MediaCodec ID : isom (isom)File size : 1.81 GiBDuration : 1 h 36 minOverall bit rate mode : VariableOverall bit rate : 2 692 kb/sMovie name : Светская жизнь | KinoGadgetPerformer : Вуди АлленDirector : Вуди АлленActor : Дженни Берлин / Стив Карелл / Джесси Айзенберг / Кристен Стюарт / Блэйк Лайвли / Паркер Поузи / Кори Столл / Кен Стотт / Анна Кэмп / Пол ШнайдерScreenplay by : Вуди АлленProducer : Летти Аронсон / Стивен Тененбаум / Эдвард УолсонGenre : Comedy, Drama, RomanceContentType : Short FilmRecorded date : 2016Encoded date : UTC 2016-11-12 09:14:16Tagged date : UTC 2016-11-13 07:35:58Cover : YesContentRating : mpaa|PG-13|300|LongDescription : 1930-е годы. Молодой человек приезжает из Нью-Йорка в Голливуд в надежде найти работу в киноиндустрии. В Лос-Анджелесе он влюбляется и обнаруживает себя в самом центре водоворота бурной светской жизни и событий, определивших дух того времени.HDVideo : Yes

VideoID : 1Format : AVCFormat/Info : Advanced Video CodecFormat profile : [email protected] settings, CABAC : YesFormat settings, ReFrames : 9 framesCodec ID : avc1Codec ID/Info : Advanced Video CodingDuration : 1 h 36 minBit rate : 2 425 kb/sMaximum bit rate : 13.3 Mb/sWidth : 1 280 pixelsHeight : 640 pixelsDisplay aspect ratio : 2.000Frame rate mode : ConstantFrame rate : 23.976 (24000/1001) FPSColor space : YUVChroma subsampling : 4:2:0Bit depth : 8 bitsScan type : ProgressiveBits/(Pixel*Frame) : 0.123Stream size : 1.63 GiB (90%)Writing library : x264 core 148 r2638 7599210Encoding settings : cabac=1 / ref=9 / deblock=1:-1:-1 / analyse=0x3:0x133 / me=umh / subme=7 / psy=1 / psy_rd=1.00:0.15 / mixed_ref=1 / me_range=24 / chroma_me=1 / trellis=2 / 8x8dct=1 / cqm=0 / deadzone=21,11 / fast_pskip=1 / chroma_qp_offset=-3 / threads=3 / lookahead_threads=1 / sliced_threads=0 / nr=0 / decimate=1 / interlaced=0 / bluray_compat=0 / constrained_intra=0 / bframes=8 / b_pyramid=2 / b_adapt=2 / b_bias=0 / direct=3 / weightb=1 / open_gop=0 / weightp=2 / keyint=240 / keyint_min=23 / scenecut=40 / intra_refresh=0 / rc_lookahead=60 / rc=crf / mbtree=1 / crf=19.0 / qcomp=0.60 / qpmin=0 / qpmax=69 / qpstep=4 / ip_ratio=1.40 / aq=1:1.00Encoded date : UTC 2016-11-12 06:24:03Tagged date : UTC 2016-11-12 09:15:24

Audio #1ID : 2Format : AACFormat/Info : Advanced Audio CodecFormat profile : LCCodec ID : 40Duration : 1 h 36 minBit rate mode : VariableBit rate : 128 kb/sMaximum bit rate : 134 kb/sChannel(s) : 2 channelsChannel positions : Front: L RSampling rate : 48.0 kHzFrame rate : 46.875 FPS (1024 spf)Compression mode : LossyStream size : 88.0 MiB (5%)Title : Dub [iTunes]Language : RussianEncoded date : UTC 2016-11-12 08:34:19Tagged date : UTC 2016-11-12 09:15:24

Audio #2ID : 3Format : AACFormat/Info : Advanced Audio CodecFormat profile : LCCodec ID : 40Duration : 1 h 36 minBit rate mode : VariableBit rate : 128 kb/sMaximum bit rate : 135 kb/sChannel(s) : 2 channelsChannel positions : Front: L RSampling rate : 48.0 kHzFrame rate : 46.875 FPS (1024 spf)Compression mode : LossyStream size : 88.0 MiB (5%)Title : Dub [iTunes]Language : UkrainianEncoded date : UTC 2016-11-12 08:50:13Tagged date : UTC 2016-11-12 09:15:24
<a href="tracker.php?rid=39840292" class="postLink"> </a>

Трекер:  [ 13-Ноя-2016 11:00 ]

  

Скачать .torrent

Размер .torrent файла 18 KB


Размер: 1.81 GB
Хэш (hash) релиза: c89f8878a3c808043d82eff4664fe5b0410485bd

Еще никто не оставлял запись к записи скачать торрент [VIDEO] Светская жизнь Café Society . Будь первым!

!Обратная связь