Une odyssée américaine | Jan Dara | Gary Weeks

Скачать через торрент [MULT] Кунг-фу Панда 3 Kung Fu Panda 3 бесплатно русская версия torrent активатор

Статистика раздачи
Размер:  1.96 GB   |    Зарегистрирован:  1 год 8 месяцев   |    .torrent скачан:  28 раз   |   
Раздают:  1  
   
загрузка...
 
Автор Сообщение

Galfimbul

avatar Galfimbul


Кунг-фу Панда 3 / Kung Fu Panda 3
«Притяженья больше нет»
Дата выхода: 2016
Оригинальное название: Kung Fu Panda 3
Страна: Китай, США
Жанр: мультфильм, фэнтези, боевик, комедия, приключения, семейный
Возраст: 6+

Режиссер: Алессандро Карлони, Дженнифер Ю / Alessandro Carloni, Jennifer Yuh Nelson

В ролях: Джек Блэк, Брайан Крэнстон, Дастин Хоффман, Анджелина Джоли, Дж.К. Симмонс, Джеки Чан, Сет Роген, Люси Лью, Дэвид Кросс, Кейт Хадсон

Описание: Воссоединившись со своим давно потерянным отцом, По отправляется в тайный рай для панд, где его ожидает встреча с множеством веселых сородичей. Однако вскоре злодей Кай начинает зачистку — он уничтожает кунг-фу мастеров по всему Китаю.

По предстоит сделать невозможное — обучить боевому искусству деревню, полную его веселых, неуклюжих собратьев, и тем самым превратить их в отряд кунг-фу панд.

Продолжительность: 01:34:54
Перевод: Дублированный [Blu-Ray EUR]
Оригинальная дорожка: нет

Качество видео: BDRip Исходник: Blu-Ray Remux (1080p) Формат: mp4
Видео кодек: MPEG-4 AVC Аудио кодек: AAC
Видео: 1280x544 at 23.976 fps, AVC at 2 684 kbps avg, 0.161 bit/pixel
Аудио №1 Rus: 48.0 KHz, AAC, 2 ch, 128.0 Kbps
Аудио №2 Ukr: 48.0 KHz, AAC, 2 ch, 128.0 Kbps
Субтитры: русские (Forced)
Навигация по главам: есть
avs [info]: 1280x544p 1:1 @ 24000/1001 fps (cfr)
x264 [info]: using SAR=1/1
x264 [info]: using cpu capabilities: MMX2 SSE2Fast SSSE3 Cache64
x264 [info]: profile High, level 4.1
x264 [info]: frame I:1306 Avg QP:15.72 size:132931
x264 [info]: frame P:34605 Avg QP:19.74 size: 28686
x264 [info]: frame B:100625 Avg QP:23.90 size: 7400
x264 [info]: consecutive B-frames: 3.8% 3.8% 12.3% 37.7% 17.2% 13.6% 1.7% 2.1% 7.3% 0.2% 0.3%
x264 [info]: mb I I16..4: 8.2% 63.2% 28.5%
x264 [info]: mb P I16..4: 4.3% 15.8% 2.0% P16..4: 34.5% 12.1% 10.3% 1.2% 0.4% skip:19.3%
x264 [info]: mb B I16..4: 0.4% 1.7% 0.4% B16..8: 26.6% 6.9% 2.0% direct: 2.9% skip:59.1% L0:40.8% L1:45.2% BI:14.0%
x264 [info]: 8x8 transform intra:69.5% inter:62.6%
x264 [info]: direct mvs spatial:100.0% temporal:0.0%
x264 [info]: coded y,uvDC,uvAC intra: 65.2% 80.1% 50.3% inter: 14.2% 17.4% 5.3%
x264 [info]: i16 v,h,dc,p: 22% 27% 9% 42%
x264 [info]: i8 v,h,dc,ddl,ddr,vr,hd,vl,hu: 15% 20% 18% 6% 8% 8% 9% 7% 9%
x264 [info]: i4 v,h,dc,ddl,ddr,vr,hd,vl,hu: 16% 17% 13% 7% 12% 10% 11% 7% 8%
x264 [info]: i8c dc,h,v,p: 45% 24% 17% 14%
x264 [info]: Weighted P-Frames: Y:4.1% UV:3.4%
x264 [info]: ref P L0: 57.7% 13.7% 10.4% 5.7% 3.1% 3.6% 2.2% 1.9% 1.5% 0.3% 0.0%
x264 [info]: ref B L0: 84.8% 6.8% 3.7% 1.6% 1.3% 0.9% 0.6% 0.2%
x264 [info]: ref B L1: 94.1% 5.9%
x264 [info]: kb/s:2684.46
encoded 136536 frames, 1.96 fps, 2684.46 kb/s
GeneralComplete name : D:\Torrents\Download\Kung_Fu_Panda.3.2016_KinoGadget.mp4Format : MPEG-4Format profile : Base MediaCodec ID : isomFile size : 1.96 GiBDuration : 1h 34mnOverall bit rate mode : VariableOverall bit rate : 2 952 KbpsMovie name : Кунг-фу Панда 3 | KinoGadgetPerformer : Алессандро Карлони, Дженнифер ЮGenre : Action, Adventure, AnimationContentType : Short FilmRecorded date : 2016Encoded date : UTC 2016-11-11 07:36:18Tagged date : UTC 2016-11-11 07:39:30

Cover : YesLongDescription : Воссоединившись со своим давно потерянным отцом, По отправляется в тайный рай для панд, где его ожидает встреча с множеством веселых сородичей. Однако вскоре злодей Кай начинает зачистку — он уничтожает кунг-фу мастеров по всему Китаю. / / По предстоит сделать невозможное — обучить боевому искусству деревню, полную его веселых, неуклюжих собратьев, и тем самым превратить их в отряд кунг-фу панд.HDVideo : YesContentRating : mpaa|PG|200|

VideoID : 1Format : AVCFormat/Info : Advanced Video CodecFormat profile : [email protected] settings, CABAC : YesFormat settings, ReFrames : 9 framesCodec ID : avc1Codec ID/Info : Advanced Video CodingDuration : 1h 34mnBit rate : 2 684 KbpsMaximum bit rate : 29.5 MbpsWidth : 1 280 pixelsHeight : 544 pixelsDisplay aspect ratio : 2.35:1Frame rate mode : ConstantFrame rate : 23.976 fpsColor space : YUVChroma subsampling : 4:2:0Bit depth : 8 bitsScan type : ProgressiveBits/(Pixel*Frame) : 0.161Stream size : 1.78 GiB (91%)Writing library : x264 core 148 r2638 7599210Encoding settings : cabac=1 / ref=9 / deblock=1:1:1 / analyse=0x3:0x133 / me=umh / subme=7 / psy=1 / psy_rd=0.40:0.00 / mixed_ref=1 / me_range=24 / chroma_me=1 / trellis=2 / 8x8dct=1 / cqm=0 / deadzone=21,11 / fast_pskip=1 / chroma_qp_offset=-2 / threads=3 / lookahead_threads=1 / sliced_threads=0 / nr=0 / decimate=1 / interlaced=0 / bluray_compat=0 / constrained_intra=0 / bframes=10 / b_pyramid=2 / b_adapt=2 / b_bias=0 / direct=3 / weightb=1 / open_gop=0 / weightp=2 / keyint=240 / keyint_min=23 / scenecut=40 / intra_refresh=0 / rc_lookahead=60 / rc=crf / mbtree=1 / crf=19.0 / qcomp=0.60 / qpmin=0 / qpmax=69 / qpstep=4 / ip_ratio=1.40 / aq=1:0.60Language : EnglishEncoded date : UTC 2016-11-11 07:36:18Tagged date : UTC 2016-11-11 07:37:56

Audio #1ID : 2Format : AACFormat/Info : Advanced Audio CodecFormat profile : LCCodec ID : 40Duration : 1h 34mnBit rate mode : VariableBit rate : 128 KbpsMaximum bit rate : 135 KbpsChannel count : 2 channelsChannel positions : Front: L RSampling rate : 48.0 KHzCompression mode : LossyStream size : 86.9 MiB (4%)Title : Dub [License]Language : RussianEncoded date : UTC 2016-11-11 07:37:20Tagged date : UTC 2016-11-11 07:37:56

Audio #2ID : 3Format : AACFormat/Info : Advanced Audio CodecFormat profile : LCCodec ID : 40Duration : 1h 34mnBit rate mode : VariableBit rate : 128 KbpsMaximum bit rate : 135 KbpsChannel count : 2 channelsChannel positions : Front: L RSampling rate : 48.0 KHzCompression mode : LossyStream size : 86.9 MiB (4%)Title : Dub [License]Language : UkrainianEncoded date : UTC 2016-11-11 07:37:44Tagged date : UTC 2016-11-11 07:37:56
<a href="tracker.php?rid=39840292" class="postLink"> </a>

Трекер:  [ 11-Ноя-2016 12:00 ]

  

Скачать .torrent

Размер .torrent файла 20 KB


Размер: 1.96 GB
Хэш (hash) релиза: 41f4a32a6412397f41a6b0e6848367020ba196d2

Еще никто не оставлял запись к записи скачать торрент [MULT] Кунг-фу Панда 3 Kung Fu Panda 3 . Будь первым!

!Обратная связь