Classic Bike UK – July 2018 | Con los brazos abiertos (2017) | QuizMaker Pro 2018.2

Скачать через торрент [VIDEO] И гаснет свет... Lights Out бесплатно русская версия torrent активатор

Статистика раздачи
Размер:  1.32 GB   |    Зарегистрирован:  1 год 8 месяцев   |    .torrent скачан:  20 раз   |   
Раздают:  1  
   
загрузка...
 
Автор Сообщение

Galfimbul

avatar Galfimbul


И гаснет свет... / Lights Out
«You were right to be afraid of the dark»
Год выпуска: 8 июня 2016
Оригинальное название: Lights Out
Страна: США
Жанр: ужасы, триллер
Возраст: 16+

Режиссер: Дэвид Ф. Сандберг

В ролях: Тереза Палмер, Гэбриел Бейтман, Александр ДиПерсиа, Билли Бёрк, Мария Белло, Алисия Вела-Бэйли, Энди Ошо, Роландо Бойс, Мария Расселл, Элизабет Пан

Описание: Когда Ребекка покинула родной дом, она думала, что её детские страхи остались позади. Ребенком она никогда не была уверена, что реально, а что нет, когда гас свет, и теперь её младший брат Мартин переживает те же необъяснимые и ужасные события, которые когда-то испытывали на прочность её рассудок и угрожали её безопасности. Пугающее нечто, таинственным образом привязанное к их матери Софи, появилось вновь. Но на этот раз Ребекка подбирается к разгадке истины, и уже не остается сомнений в том, что их жизни в опасности, как только будет погашен свет.

Продолжительность: 01:20:57
Перевод: Дублированный [Лицензия Blu-Ray CEE]
Оригинальная дорожка: нет

Качество видео: BDRip Исходник: Blu-Ray Remux (1080p) Формат: mp4
Видео кодек: MPEG-4 AVC Аудио кодек: AAC
Видео: 1280x532 at 23.976 fps, AVC at 2 206 kbps avg, 0.135 bit/pixel
Аудио №1 Rus: 48.0 KHz, AAC, 2 ch, 128.0 Kbps
Субтитры: русские (forced)
Навигация по главам: есть
avs [info]: 1280x532p 1:1 @ 24000/1001 fps (cfr)
x264 [info]: using SAR=1/1
x264 [info]: using cpu capabilities: MMX2 SSE2Fast SSSE3 Cache64
x264 [info]: profile High, level 4.1
x264 [info]: frame I:884 Avg QP:15.17 size:113734
x264 [info]: frame P:22736 Avg QP:18.49 size: 25019
x264 [info]: frame B:92835 Avg QP:20.64 size: 7217
x264 [info]: consecutive B-frames: 1.5% 1.3% 5.5% 12.0% 14.7% 53.8% 5.9% 1.3% 1.5% 1.4% 1.1%
x264 [info]: mb I I16..4: 17.6% 60.5% 22.0%
x264 [info]: mb P I16..4: 2.4% 9.6% 1.5% P16..4: 41.4% 14.2% 14.3% 0.4% 0.2% skip:16.0%
---[Information] [08.11.2016 7:22:03] x264 [info]: mb B I16..4: 0.2% 1.2% 0.1% B16..8: 41.6% 5.1% 1.0% direct: 4.7% skip:46.0% L0:45.4% L1:49.0% BI: 5.6%
x264 [info]: 8x8 transform intra:71.9% inter:65.1%
x264 [info]: direct mvs spatial:99.9% temporal:0.1%
x264 [info]: coded y,uvDC,uvAC intra: 71.9% 79.8% 56.6% inter: 14.6% 22.0% 3.5%
x264 [info]: i16 v,h,dc,p: 50% 12% 15% 23%
x264 [info]: i8 v,h,dc,ddl,ddr,vr,hd,vl,hu: 19% 8% 39% 4% 6% 7% 5% 6% 5%
x264 [info]: i4 v,h,dc,ddl,ddr,vr,hd,vl,hu: 38% 10% 16% 5% 7% 8% 6% 6% 5%
x264 [info]: i8c dc,h,v,p: 53% 15% 23% 9%
x264 [info]: Weighted P-Frames: Y:6.3% UV:3.9%
x264 [info]: ref P L0: 47.1% 9.6% 19.2% 6.8% 5.7% 3.7% 3.5% 2.0% 1.9% 0.3% 0.0%
x264 [info]: ref B L0: 73.1% 12.6% 6.2% 3.1% 2.1% 1.7% 0.9% 0.3%
x264 [info]: ref B L1: 91.6% 8.4%
x264 [info]: kb/s:2205.95
encoded 116455 frames, 1.73 fps, 2205.95 kb/s
GeneralComplete name : D:\Torrents\Download\I_gasnet_svet_2016_KinoGadget.mp4Format : MPEG-4Format profile : Base MediaCodec ID : isomFile size : 1.32 GiBDuration : 1h 20mnOverall bit rate mode : VariableOverall bit rate : 2 342 KbpsMovie name : И гаснет свет... | KinoGadgetPerformer : Дэвид Ф. СандбергGenre : Horror, ThrillerContentType : Short FilmRecorded date : 2016Encoded date : UTC 2016-11-08 06:24:01Tagged date : UTC 2016-11-08 06:51:35Cover : YesContentRating : mpaa|PG-13|300|

LongDescription : Когда Ребекка покинула родной дом, она думала, что её детские страхи остались позади. Ребенком она никогда не была уверена, что реально, а что нет, когда гас свет, и теперь её младший брат Мартин переживает те же необъяснимые и ужасные события, которые когда-то испытывали на прочность её рассудок и угрожали её безопасности. Пугающее нечто, таинственным образом привязанное к их матери Софи, появилось вновь. Но на этот раз Ребекка подбирается к разгадке истины, и уже не остается сомнений в том, что их жизни в опасности, как только будет погашен свет.HDVideo : Yes

VideoID : 1Format : AVCFormat/Info : Advanced Video CodecFormat profile : [email protected] settings, CABAC : YesFormat settings, ReFrames : 9 framesCodec ID : avc1Codec ID/Info : Advanced Video CodingDuration : 1h 20mnBit rate : 2 206 KbpsMaximum bit rate : 18.4 MbpsWidth : 1 280 pixelsHeight : 532 pixelsDisplay aspect ratio : 2.40:1Frame rate mode : ConstantFrame rate : 23.976 fpsColor space : YUVChroma subsampling : 4:2:0Bit depth : 8 bitsScan type : ProgressiveBits/(Pixel*Frame) : 0.135Stream size : 1.25 GiB (94%)Writing library : x264 core 148 r2638 7599210Encoding settings : cabac=1 / ref=9 / deblock=1:-1:-1 / analyse=0x3:0x133 / me=umh / subme=7 / psy=1 / psy_rd=1.00:0.15 / mixed_ref=1 / me_range=24 / chroma_me=1 / trellis=2 / 8x8dct=1 / cqm=0 / deadzone=21,11 / fast_pskip=1 / chroma_qp_offset=-3 / threads=3 / lookahead_threads=1 / sliced_threads=0 / nr=0 / decimate=1 / interlaced=0 / bluray_compat=0 / constrained_intra=0 / bframes=10 / b_pyramid=2 / b_adapt=2 / b_bias=0 / direct=3 / weightb=1 / open_gop=0 / weightp=2 / keyint=240 / keyint_min=23 / scenecut=40 / intra_refresh=0 / rc_lookahead=60 / rc=crf / mbtree=1 / crf=19.0 / qcomp=0.60 / qpmin=0 / qpmax=69 / qpstep=4 / ip_ratio=1.40 / aq=1:1.00Encoded date : UTC 2016-11-08 03:22:09Tagged date : UTC 2016-11-08 06:25:57

AudioID : 2Format : AACFormat/Info : Advanced Audio CodecFormat profile : LCCodec ID : 40Duration : 1h 20mnBit rate mode : VariableBit rate : 128 KbpsMaximum bit rate : 135 KbpsChannel count : 2 channelsChannel positions : Front: L RSampling rate : 48.0 KHzCompression mode : LossyDelay relative to video : 125msStream size : 74.1 MiB (5%)Title : Dub [license]Language : RussianEncoded date : UTC 2016-11-08 06:04:58Tagged date : UTC 2016-11-08 06:25:57

TextID : 3Format : Timed TextCodec ID : tx3gDuration : 1h 7mnBit rate mode : VariableBit rate : 2 bpsDelay relative to video : 125msStream size : 779 Bytes (0%)Title : ForcedLanguage : RussianEncoded date : UTC 2016-11-08 06:25:57Tagged date : UTC 2016-11-08 06:25:57

Menu00:00:00.000 : 00:00:00.00000:10:01.559 : 00:10:01.55900:21:07.349 : 00:21:07.34900:30:12.936 : 00:30:12.93600:40:57.664 : 00:40:57.66400:50:38.285 : 00:50:38.28500:58:43.603 : 00:58:43.60301:09:54.190 : 01:09:54.19001:16:21.285 : 01:16:21.285
<a href="tracker.php?rid=39840292" class="postLink"> </a>

Трекер:  [ 08-Ноя-2016 11:00 ]

  

Скачать .torrent

Размер .torrent файла 13 KB


Размер: 1.32 GB
Хэш (hash) релиза: c8607102d3e71c987fd01201ddead993371ead44

Еще никто не оставлял запись к записи скачать торрент [VIDEO] И гаснет свет... Lights Out . Будь первым!

!Обратная связь