Żmijowisko - audiobook | Tracy Morgan | 347,933 05:43 Permata Hatiku Broery Marantika

Скачать через торрент [SERIAL] Секретные материалы The X-Files бесплатно русская версия torrent активатор

Статистика раздачи
Размер:  8.79 GB   |    Зарегистрирован:  1 год 8 месяцев   |    .torrent скачан:  21 раз   |   
Раздают:  1  
   
загрузка...
 
Автор Сообщение

Galfimbul

avatar Galfimbul


Секретные материалы / The X-Files3 сезон
Год выпуска: 1995-1996
Страна: США
Жанр: фантастика, триллер, детектив
Продолжительность: ~00:45:00
Перевод: Профессиональный (дублированный) ТВ3
Субтитры: русские форсированные неотключаемые
Режиссер: Крис Картер / Chris Carter
В ролях: Дэвид Духовны, Джиллиан Андерсон, Митч Пиледжи, Роберт Патрик, Аннабет Гиш, Том Брэйдвуд, Уильям Б. Дэвис, Брюс Харвуд, Дин Хаглунд, Николас Ли.
Описание: Специальному агенту Дане Скалли, доктору и преподавателю академии ФБР в Вирджинии, поручают работу в паре с агентом Фоксом Малдером над проектом «Секретные материалы», архивом таинственных, нерешенных дел ФБР, которые зачастую связаны с паранормальными явлениями, случаями вампиризма и оборотничества, нападением генетических мутантов, свидетельствами о похищении людей пришельцами…

Малдер верит в пришельцев и пытается убедить скептика Скалли, что не всё и не всегда поддаётся разумному объяснению. В своих дискуссиях Малдер и Скалли не столько стараются убедить друг друга, сколько получают удовольствие от самого общения. Постепенно первоначальное взаимное недоверие перерастает в дружбу, а чуть позже и в более глубокое чувство.
Доп. информация: За исходное видео и субтитры спасибо <a href="profile.php?mode=viewprofile&u=13383530" class="postLink">-JokeR-</a>
Качество: HDRip
Формат: MP4
Видео: MPEG-4 Visual, 640x360 (16:9), 1080 Kbps, 23,976 fps
Аудио: Русский, AAC, 2 ch, 128 Kbps, 48 KHz
<span class="post-font-mono1">3x01 — (050) Благословенный путь (The Blessing Way)
3x02 — (051) Скрепка (Paper Clip)
3x03 — (052) Дарин П.Освальд (D.P.O.)
3x04 — (053) Последний покой Клайда Брукмена (Clyde Bruckman's Final Repose)
3x05 — (054) Список (The List)
3x06 — (055) Слишком стеснительный (2Shy)
3x07 — (056) Прогулка (The Walk)
3x08 — (057) Темница (Oubliette)
3x09 — (058) Нисэй (Nisei)
3x10 — (059) 731 (731)
3x11 — (060) Откровения (Revelations)
3x12 — (061) Война Копрофагов (War of the Coprophages)
3x13 — (062) Парад планет (Syzygy)
3x14 — (063) Гротеск (Grotesque)
3x15 — (064) "Пайпер Мару" ('Piper Maru')
3x16 — (065) Апокриф (Apocrypha)
3x17 — (066) Толкач (Pusher)
3x18 — (067) Место, где живут духи (Teso Dos Bichos)
3x19 — (068) Адские деньги (Hell Money)
3x20 — (069) Из внешнего космоса Джоза Чанга (Jose Chung's 'From Outer Space')
3x21 — (070) Воплощение (Avatar)
3x22 — (071) Трясина (Quagmire)
3x23 — (072) Сыро смонтировано (Wetwired)
3x24 — (073) Девочка, встань (Talitha Cumi)</span>
ОбщееПолное имя : D:\Раздачи\X-Files.s03.HDRip.640x\3x03 D.P.O..mp4Формат : MPEG-4Профиль формата : Base Media / Version 2Идентификатор кодека : mp42 (isom/mp42/3gp5)Размер файла : 379 МбайтПродолжительность : 44 м.Режим общего битрейта : ПеременныйОбщий поток : 1200 Кбит/секДата кодирования : UTC 2016-10-25 05:08:52Дата пометки : UTC 2016-10-25 05:08:52

ВидеоИдентификатор : 201Формат : MPEG-4 VisualПрофиль формата : [email protected]Параметр BVOP формата : НетПараметр QPel формата : НетПараметр GMC формата : Без точки переходаПараметр матрицы формата : Default (H.263)Идентификатор кодека : 20Продолжительность : 44 м.Вид битрейта : ПеременныйБитрейт : 1072 Кбит/секМаксимальный битрейт : 14,5 Мбит/секШирина : 640 пикселейВысота : 360 пикселейСоотношение сторон : 16:9Режим частоты кадров : ПостоянныйЧастота кадров : 23,976 (24000/1001) кадра/секЦветовое пространство : YUVСубдискретизация насыщенности : 4:2:0Битовая глубина : 8 битТип развёртки : ПрогрессивнаяМетод сжатия : С потерямиБит/(Пиксели*Кадры) : 0.194Размер потока : 339 Мбайт (89%)Библиотека кодирования : Lavc52.30.2Дата кодирования : UTC 2016-10-25 05:08:52Дата пометки : UTC 2016-10-25 05:09:05

АудиоИдентификатор : 101Формат : AACФормат/Информация : Advanced Audio CodecПрофиль формата : LCИдентификатор кодека : 40Продолжительность : 44 м.Вид битрейта : ПеременныйБитрейт : 125 Кбит/секМаксимальный битрейт : 257 Кбит/секКаналы : 2 каналаРасположение каналов : Front: L RЧастота : 48,0 КГцЧастота кадров : 46,875 кадров/сек (1024 spf)Метод сжатия : С потерямиРазмер потока : 39,6 Мбайт (10%)Дата кодирования : UTC 2016-10-25 05:09:01Дата пометки : UTC 2016-10-25 05:09:05

Прочее #1Идентификатор : 2Тип : Object descriptionФормат : SystemИдентификатор кодека : 1Продолжительность : 1 с. 0 мс.Дата кодирования : UTC 2016-10-25 05:09:05Дата пометки : UTC 2016-10-25 05:09:05

Прочее #2Идентификатор : 1Тип : Scene descriptionФормат : System CoreИдентификатор кодека : 2Продолжительность : 1 с. 0 мс.Дата кодирования : UTC 2016-10-25 05:09:05Дата пометки : UTC 2016-10-25 05:09:05
1. Субтитры форсированные, присутствуют на необходимые экранные надписи (см. скриншоты)
2. Субтитры анимированные, т.е. присутствует эффект "печатной машинки" как в оригинале
3. Перевод субтитров сделан на основе перевода ТВ3, с некоторыми исправлениями
4. Субтитры неотключаемые, вшиты в видеоряд
5. Пара шрифтов и некоторые тайминги были позаимствованы из субтитров от lostrator, за что ему спасибо
Четвертым сезоном планирую заняться, когда появится исходник от -JokeR-
Не забываем говорить "спасибо"


Трекер:  [ 07-Ноя-2016 11:30 ]

  

Скачать .torrent

Размер .torrent файла 45 KB


Размер: 8.79 GB
Хэш (hash) релиза: 9d06336c7e300237f88e235e37a143b74f14762a

Еще никто не оставлял запись к записи скачать торрент [SERIAL] Секретные материалы The X-Files . Будь первым!

!Обратная связь