Beware the Slenderman. | Superman: The Man of Steel (1991-2003) #1 | Kaikki se valo jota emme näe

Скачать через торрент [MULT] Зверополис Zootopia бесплатно русская версия torrent активатор

Статистика раздачи
Размер:  1.61 GB   |    Зарегистрирован:  1 год 8 месяцев   |    .torrent скачан:  86 раз   |   
Раздают:  1  
   
загрузка...
 
Автор Сообщение

Galfimbul

avatar Galfimbul


Зверополис / Zootopia
«Welcome to the urban jungle»
Дата выхода: 11 февраля 2016
Оригинальное название: Zootopia
Страна: США
Жанр: мультфильм, комедия, криминал, детектив, приключения, семейный
Возраст: 6+

Режиссер: Байрон Ховард, Рич Мур, Джаред Буш / Byron Howard, Rich Moore, Jared Bush

В ролях: Джиннифер Гудвин, Джейсон Бейтмен, Идрис Эльба, Дженни Слейт, Нейт Торренс, Бонни Хант, Дон Лейк, Томми Чонг, Дж.К. Симмонс, Октавия Спенсер, Алан Тьюдик, Шакира, Рэймонд С. Перси, Делла Саба, Морис ЛаМарш, Фуския, Джон Ди Маджио, Кэти Лоус, Джесси Корти, Том ’Тайни’ Листер мл.

Описание: Добро пожаловать в Зверополис — современный город, населенный самыми разными животными, от огромных слонов до крошечных мышек. Зверополис разделен на районы, полностью повторяющие естественную среду обитания разных жителей — здесь есть и элитный район Площадь Сахары и неприветливый Тундратаун. В этом городе появляется новый офицер полиции, жизнерадостная зайчиха Джуди Хоппс, которая с первых дней работы понимает, как сложно быть маленькой и пушистой среди больших и сильных полицейских. Джуди хватается за первую же возможность проявить себя, несмотря на то, что ее партнером будет болтливый хитрый лис Ник Уайлд. Вдвоем им предстоит раскрыть сложное дело, от которого будет зависеть судьба всех обитателей Зверополиса.

Продолжительность: 01:48:44
Перевод: Дублированный [Лицензия]
Оригинальная дорожка: нет

Качество видео: BDRip Исходник: Blu-Ray Remux (1080p) Формат: mp4
Видео кодек: MPEG-4 AVC Аудио кодек: AAC
Видео: 1280x536 at 23.976 fps, AVC at 1 987 kbps avg, 0.121 bit/pixel
Аудио №1 Rus: 48.0 KHz, AAC, 2 ch, 128.0 Kbps
Субтитры: нет
Навигация по главам: есть
x264 [info]: frame I:1498 Avg QP:14.17 size:111835
x264 [info]: frame P:33164 Avg QP:17.52 size: 25420
x264 [info]: frame B:121768 Avg QP:21.25 size: 5012
x264 [info]: consecutive B-frames: 2.3% 2.7% 5.7% 20.7% 18.5% 34.9% 6.9% 3.4% 5.0%
x264 [info]: mb I I16..4: 8.8% 57.1% 34.1%
x264 [info]: mb P I16..4: 3.6% 10.7% 1.9% P16..4: 42.3% 14.2% 11.3% 0.8% 0.2% skip:14.9%
x264 [info]: mb B I16..4: 0.4% 1.1% 0.2% B16..8: 30.1% 5.1% 1.2% direct: 2.2% skip:59.6% L0:43.3% L1:47.0% BI: 9.8%
x264 [info]: 8x8 transform intra:64.4% inter:61.8%
x264 [info]: direct mvs spatial:100.0% temporal:0.0%
x264 [info]: coded y,uvDC,uvAC intra: 66.0% 76.1% 49.7% inter: 11.4% 14.6% 3.3%
x264 [info]: i16 v,h,dc,p: 31% 22% 12% 35%
x264 [info]: i8 v,h,dc,ddl,ddr,vr,hd,vl,hu: 19% 19% 20% 5% 7% 7% 8% 7% 8%
x264 [info]: i4 v,h,dc,ddl,ddr,vr,hd,vl,hu: 23% 18% 16% 6% 9% 8% 8% 6% 6%
x264 [info]: i8c dc,h,v,p: 44% 25% 20% 11%
x264 [info]: Weighted P-Frames: Y:2.6% UV:2.0%
x264 [info]: ref P L0: 49.2% 10.0% 16.2% 6.9% 6.1% 4.6% 3.9% 2.7% 0.3% 0.0%
x264 [info]: ref B L0: 78.4% 10.2% 5.4% 2.5% 1.9% 1.1% 0.5%
x264 [info]: ref B L1: 93.4% 6.6%
x264 [info]: kb/s:1987.35
encoded 156430 frames, 2.87 fps, 1987.35 kb/s
GeneralComplete name : D:\Torrents\Download\Zveropolis_2016_KinoGadget.mp4Format : MPEG-4Format profile : Base MediaCodec ID : isomFile size : 1.61 GiBDuration : 1h 48mnOverall bit rate mode : VariableOverall bit rate : 2 123 KbpsMovie name : ЗверополисPerformer : Байрон Ховард, Рич Мур, Джаред БушGenre : Adventure, Animation, ComedyContentType : Short FilmRecorded date : 2016Encoded date : UTC 2016-11-07 05:48:55Tagged date : UTC 2016-11-07 06:00:37Cover : Yes

ContentRating : mpaa|PG|200|LongDescription : Добро пожаловать в Зверополис — современный город, населенный самыми разными животными, от огромных слонов до крошечных мышек. Зверополис разделен на районы, полностью повторяющие естественную среду обитания разных жителей — здесь есть и элитный район Площадь Сахары и неприветливый Тундратаун. В этом городе появляется новый офицер полиции, жизнерадостная зайчиха Джуди Хоппс, которая с первых дней работы понимает, как сложно быть маленькой и пушистой среди больших и сильных полицейских.HDVideo : Yes

VideoID : 1Format : AVCFormat/Info : Advanced Video CodecFormat profile : [email protected] settings, CABAC : YesFormat settings, ReFrames : 8 framesCodec ID : avc1Codec ID/Info : Advanced Video CodingDuration : 1h 48mnBit rate : 1 987 KbpsMaximum bit rate : 13.5 MbpsWidth : 1 280 pixelsHeight : 536 pixelsDisplay aspect ratio : 2.40:1Frame rate mode : ConstantFrame rate : 23.976 fpsColor space : YUVChroma subsampling : 4:2:0Bit depth : 8 bitsScan type : ProgressiveBits/(Pixel*Frame) : 0.121Stream size : 1.51 GiB (94%)Writing library : x264 core 148 r2638 7599210Encoding settings : cabac=1 / ref=8 / deblock=1:1:1 / analyse=0x3:0x133 / me=umh / subme=7 / psy=1 / psy_rd=0.40:0.00 / mixed_ref=1 / me_range=24 / chroma_me=1 / trellis=2 / 8x8dct=1 / cqm=0 / deadzone=21,11 / fast_pskip=1 / chroma_qp_offset=-2 / threads=3 / lookahead_threads=1 / sliced_threads=0 / nr=0 / decimate=1 / interlaced=0 / bluray_compat=0 / constrained_intra=0 / bframes=8 / b_pyramid=2 / b_adapt=2 / b_bias=0 / direct=3 / weightb=1 / open_gop=0 / weightp=2 / keyint=240 / keyint_min=23 / scenecut=40 / intra_refresh=0 / rc_lookahead=60 / rc=crf / mbtree=1 / crf=18.0 / qcomp=0.60 / qpmin=0 / qpmax=69 / qpstep=4 / ip_ratio=1.40 / aq=1:1.00Encoded date : UTC 2016-11-07 05:06:38Tagged date : UTC 2016-11-07 05:49:51

AudioID : 2Format : AACFormat/Info : Advanced Audio CodecFormat profile : LCCodec ID : 40Duration : 1h 48mnBit rate mode : VariableBit rate : 128 KbpsMaximum bit rate : 135 KbpsChannel count : 2 channelsChannel positions : Front: L RSampling rate : 48.0 KHzCompression mode : LossyDelay relative to video : 125msStream size : 99.6 MiB (6%)Title : Dub [license]Language : RussianEncoded date : UTC 2016-11-07 05:33:17Tagged date : UTC 2016-11-07 05:49:51

Menu00:00:00.000 : Chapter 0100:00:59.559 : Chapter 0200:05:50.099 : Chapter 0300:10:05.563 : Chapter 0400:14:31.537 : Chapter 0500:18:24.019 : Chapter 0600:26:03.353 : Chapter 0700:30:57.438 : Chapter 0800:37:07.099 : Chapter 0900:40:43.440 : Chapter 1000:44:31.752 : Chapter 1100:51:40.430 : Chapter 1200:55:40.378 : Chapter 1301:00:48.269 : Chapter 1401:03:37.855 : Chapter 1501:09:19.822 : Chapter 1601:13:39.164 : Chapter 1701:17:07.372 : Chapter 1801:21:52.365 : Chapter 1901:28:19.168 : Chapter 2001:32:43.432 : Chapter 2101:36:12.141 : Chapter 2201:48:44.184 : Chapter 23


Трекер:  [ 07-Ноя-2016 09:30 ]

  

Скачать .torrent

Размер .torrent файла 16 KB


Размер: 1.61 GB
Хэш (hash) релиза: 242fb65fece72f6a0d38c12afef93e6b9a9dc69c

Еще никто не оставлял запись к записи скачать торрент [MULT] Зверополис Zootopia . Будь первым!

!Обратная связь