Dining Room Tables Bespoke | Eps1 Hello Stranger | GFriend's One Fine Day

Скачать через торрент [MULT] Полный расколбас Sausage Party бесплатно русская версия torrent активатор

Статистика раздачи
Размер:  1.58 GB   |    Зарегистрирован:  1 год 8 месяцев   |    .torrent скачан:  43 раза   |   
Раздают:  1  
   
загрузка...
 
Автор Сообщение

Galfimbul

avatar Galfimbul


Полный расколбас / Sausage Party
«Стоять до конца!»
Год выпуска: 2016
Оригинальное название: Sausage Party
Страна: США
Жанр: мультфильм, фэнтези, комедия, приключения
Возраст: 18+

Режиссер: Грег Тирнан, Конрад Вернон / Greg Tiernan, Conrad Vernon

В ролях: Алистэр Эбелл, Айрис Апатоу, Стефани Бирд, Майкл Сера, Йен Джеймс Корлетт, Майкл Дэйнджерфилд, Брайан Добсон, Майкл Добсон, Джеймс Франко, Билл Хейдер

Описание: Не секрет, что вся вселенная - это гигантский супермаркет. Ничего не подозревающие продукты попадают в неизвестный им мир. Они думают что здесь можно отдохнуть и поразвлечься. Но в итоге оказывается что их всех заманили сюда чтобы съесть... Первая анимационная комедия для взрослых о невероятных приключениях еды из супермаркета. Съедобным друзьям предстоит получить ответ на главный вопрос: есть ли жизнь за стенами супермаркета и что же происходит с продуктами после того, как они попадают к людям домой?

Продолжительность: 01:28:45
Перевод: Дублированный [Лицензия]
Оригинальная дорожка: нет

Качество видео: BDRip Исходник: Blu-Ray Remux (1080p) Формат: mp4
Видео кодек: MPEG-4 AVC Аудио кодек: AAC
Видео: 1280x692 at 23.976 fps, AVC at 2 409 kbps avg, 0.113 bit/pixel
Аудио №1 Rus: 48.0 KHz, AAC, 2 ch, 128.0 Kbps
Субтитры: нет
Навигация по главам: нет
avs [info]: 1280x692p 1:1 @ 24000/1001 fps (cfr)
x264 [info]: using SAR=1/1
x264 [info]: using cpu capabilities: MMX2 SSE2Fast SSSE3 Cache64
x264 [info]: profile High, level 4.1
x264 [info]: frame I:1184 Avg QP:14.44 size: 88430
x264 [info]: frame P:31853 Avg QP:17.71 size: 23528
x264 [info]: frame B:94642 Avg QP:20.57 size: 7920
x264 [info]: consecutive B-frames: 3.8% 3.7% 7.6% 40.0% 13.8% 23.5% 3.2% 3.9% 0.5%
x264 [info]: mb I I16..4: 11.0% 63.7% 25.3%
x264 [info]: mb P I16..4: 6.8% 17.6% 2.2% P16..4: 38.7% 11.6% 6.6% 0.3% 0.1% skip:16.2%
x264 [info]: mb B I16..4: 0.9% 2.3% 0.3% B16..8: 34.1% 6.8% 1.2% direct: 2.6% skip:51.7% L0:45.1% L1:48.1% BI: 6.8%
x264 [info]: 8x8 transform intra:66.1% inter:73.3%
x264 [info]: direct mvs spatial:100.0% temporal:0.0%
x264 [info]: coded y,uvDC,uvAC intra: 56.9% 67.8% 35.3% inter: 12.2% 16.0% 2.3%
x264 [info]: i16 v,h,dc,p: 25% 17% 7% 51%
x264 [info]: i8 v,h,dc,ddl,ddr,vr,hd,vl,hu: 20% 17% 21% 5% 7% 8% 8% 7% 7%
x264 [info]: i4 v,h,dc,ddl,ddr,vr,hd,vl,hu: 28% 19% 17% 5% 8% 7% 7% 5% 4%
x264 [info]: i8c dc,h,v,p: 45% 23% 22% 10%
x264 [info]: Weighted P-Frames: Y:4.1% UV:2.7%
x264 [info]: ref P L0: 50.0% 9.2% 15.5% 6.8% 5.3% 4.4% 3.6% 2.3% 2.2% 0.4% 0.0%
x264 [info]: ref B L0: 76.2% 9.9% 5.5% 2.8% 2.2% 1.8% 1.1% 0.4%
x264 [info]: ref B L1: 93.6% 6.4%
x264 [info]: kb/s:2409.13
encoded 127679 frames, 2.31 fps, 2409.13 kb/s
GeneralComplete name : D:\Torrents\Download\Polnyj_raskolbas_2016_KinoGadget.mp4Format : MPEG-4Format profile : Base MediaCodec ID : isomFile size : 1.58 GiBDuration : 1h 28mnOverall bit rate mode : VariableOverall bit rate : 2 545 KbpsMovie name : Полный расколбасPerformer : Грег Тирнан, Конрад ВернонGenre : Adventure, Animation, ComedyContentType : Short FilmRecorded date : 2016Encoded date : UTC 2016-11-06 06:48:15Tagged date : UTC 2016-11-06 07:05:54Cover : YesContentRating : mpaa|R|400|

LongDescription : Не секрет, что вся вселенная - это гигантский супермаркет. Ничего не подозревающие продукты попадают в неизвестный им мир. Они думают что здесь можно отдохнуть и поразвлечься. Но в итоге оказывается что их всех заманили сюда чтобы съесть... Первая анимационная комедия для взрослых о невероятных приключениях еды из супермаркета. Съедобным друзьям предстоит получить ответ на главный вопрос: есть ли жизнь за стенами супермаркета и что же происходит с продуктами после того, как они попадают к людям домой?HDVideo : Yes

VideoID : 1Format : AVCFormat/Info : Advanced Video CodecFormat profile : [email protected] settings, CABAC : YesFormat settings, ReFrames : 9 framesCodec ID : avc1Codec ID/Info : Advanced Video CodingDuration : 1h 28mnBit rate : 2 409 KbpsMaximum bit rate : 21.1 MbpsWidth : 1 280 pixelsHeight : 692 pixelsDisplay aspect ratio : 1.85:1Frame rate mode : ConstantFrame rate : 23.976 fpsColor space : YUVChroma subsampling : 4:2:0Bit depth : 8 bitsScan type : ProgressiveBits/(Pixel*Frame) : 0.113Stream size : 1.49 GiB (95%)Writing library : x264 core 148 r2638 7599210Encoding settings : cabac=1 / ref=9 / deblock=1:1:1 / analyse=0x3:0x133 / me=umh / subme=7 / psy=1 / psy_rd=0.40:0.00 / mixed_ref=1 / me_range=24 / chroma_me=1 / trellis=2 / 8x8dct=1 / cqm=0 / deadzone=21,11 / fast_pskip=1 / chroma_qp_offset=-2 / threads=3 / lookahead_threads=1 / sliced_threads=0 / nr=0 / decimate=1 / interlaced=0 / bluray_compat=0 / constrained_intra=0 / bframes=8 / b_pyramid=2 / b_adapt=2 / b_bias=0 / direct=3 / weightb=1 / open_gop=0 / weightp=2 / keyint=240 / keyint_min=23 / scenecut=40 / intra_refresh=0 / rc_lookahead=60 / rc=crf / mbtree=1 / crf=18.0 / qcomp=0.60 / qpmin=0 / qpmax=69 / qpstep=4 / ip_ratio=1.40 / aq=1:1.00Encoded date : UTC 2016-11-06 05:28:57Tagged date : UTC 2016-11-06 06:49:11

AudioID : 2Format : AACFormat/Info : Advanced Audio CodecFormat profile : LCCodec ID : 40Duration : 1h 28mnBit rate mode : VariableBit rate : 128 KbpsMaximum bit rate : 135 KbpsChannel count : 2 channelsChannel positions : Front: L RSampling rate : 48.0 KHzCompression mode : LossyDelay relative to video : 83msStream size : 81.3 MiB (5%)Title : Dub [License]Language : RussianEncoded date : UTC 2016-11-06 06:30:32Tagged date : UTC 2016-11-06 06:49:11


Трекер:  [ 06-Ноя-2016 11:00 ]

  

Скачать .torrent

Размер .torrent файла 16 KB


Размер: 1.58 GB
Хэш (hash) релиза: 32c0b3560cee1d50262b9aca74c6178cc1905a34

Еще никто не оставлял запись к записи скачать торрент [MULT] Полный расколбас Sausage Party . Будь первым!

!Обратная связь