Shad Gaspard | Internet Download Manager (IDM) 6 31 Build 3 Patch | Братья

Скачать через торрент [VIDEO] Мир Юрского Периода Jurassic World бесплатно русская версия torrent активатор

Статистика раздачи
Размер:  2.1 GB   |    Зарегистрирован:  1 год 8 месяцев   |    .torrent скачан:  45 раз   |   
Раздают:  1  
   
загрузка...
 
Автор Сообщение

Galfimbul

avatar Galfimbul


Мир Юрского Периода / Jurassic World
«Парк откроется»
Дата выхода: 29 мая 2015
Оригинальное название: Jurassic World
Страна: США
Жанр: фантастика, приключения, боевик
Возраст: 12+

Режиссер: Колин Треворроу / Colin Trevorrow

В ролях: Крис Прэтт, Брайс Даллас Ховард, Ник Дж. Робинсон, Тай Симпкинс, Винсент Д`Онофрио, Ирфан Кхан, Омар Си, Б. Д. Вонг, Джейк Джонсон, Джуди Грир, Кэти МакГрат, Лорен Лапкус, Брайан Ти, Энди Бакли, Эрик Эдельштейн, Кортни Дж. Кларк, Колби Бутман-Шепарт, Джимми Фэллон, Джеймс ДюМонт, Мэттью Бурк

Описание: Действие происходит через 22 года после событий «Парка Юрского периода». На острове Нублар функционирует парк, задуманный Джоном Хэммондом. Но к этому времени посещаемость уже начинает падать, и компания — владелец парка решает открыть новый аттракцион, чтобы привлечь посетителей. И вот снова тысячи людей спешат увидеть Мир Юрского периода, но безопасное на первый взгляд развлечение может обернуться угрозой для всего человечества...

Продолжительность: 02:04:21
Перевод: Дублированный [Лицензия]
Оригинальная дорожка: нет

Качество видео: BDRip Исходник: Blu-Ray Remux (1080p) Формат: mp4
Видео кодек: MPEG-4 AVC Аудио кодек: AAC
Видео: 1280x640 (2.000) at 23.976 fps, AVC at 2 285 kbps avg, 0.116 bit/pixel
Аудио №1 Rus: 48.0 KHz, AAC, 2 ch, 128.0 Kbps
Субтитры: нет
Навигация по главам: нет
avs [info]: 1280x640p 1:1 @ 24000/1001 fps (cfr)
x264 [info]: using SAR=1/1
x264 [info]: using cpu capabilities: MMX2 SSE2Fast SSSE3 Cache64
x264 [info]: profile High, level 4.1
x264 [info]: frame I:1543 Avg QP:20.56 size:118927
x264 [info]: frame P:38903 Avg QP:24.00 size: 26783
x264 [info]: frame B:138441 Avg QP:26.18 size: 6540
x264 [info]: consecutive B-frames: 1.9% 2.7% 8.8% 23.6% 16.5% 35.9% 4.2% 1.0% 0.8% 1.0% 3.6%
x264 [info]: mb I I16..4: 11.7% 67.4% 20.8%
x264 [info]: mb P I16..4: 2.0% 11.6% 1.5% P16..4: 41.0% 13.7% 11.6% 0.6% 0.2% skip:17.7%
x264 [info]: mb B I16..4: 0.2% 1.0% 0.2% B16..8: 40.0% 5.7% 1.3% direct: 2.7% skip:49.0% L0:43.8% L1:48.8% BI: 7.4%
x264 [info]: 8x8 transform intra:75.2% inter:71.9%
x264 [info]: direct mvs spatial:99.9% temporal:0.1%
x264 [info]: coded y,uvDC,uvAC intra: 70.6% 76.5% 43.7% inter: 14.4% 16.3% 1.6%
x264 [info]: i16 v,h,dc,p: 33% 19% 6% 42%
x264 [info]: i8 v,h,dc,ddl,ddr,vr,hd,vl,hu: 15% 15% 17% 6% 9% 10% 10% 8% 9%
x264 [info]: i4 v,h,dc,ddl,ddr,vr,hd,vl,hu: 18% 16% 13% 7% 11% 10% 10% 8% 7%
x264 [info]: i8c dc,h,v,p: 55% 18% 19% 9%
x264 [info]: Weighted P-Frames: Y:3.7% UV:2.3%
x264 [info]: ref P L0: 52.8% 16.3% 15.8% 4.9% 4.1% 2.9% 2.9% 0.4% 0.0%
x264 [info]: ref B L0: 84.7% 8.2% 3.9% 1.8% 0.9% 0.5%
x264 [info]: ref B L1: 95.1% 4.9%
x264 [info]: kb/s:2284.68
encoded 178887 frames, 2.15 fps, 2284.68 kb/s
GeneralComplete name : D:\Torrents\Download\Mir_yurskogo_perioda_2015_KinoGadget.mp4Format : MPEG-4Format profile : Base MediaCodec ID : isomFile size : 2.10 GiBDuration : 2h 4mnOverall bit rate mode : VariableOverall bit rate : 2 420 KbpsMovie name : Мир Юрского периодаPerformer : Колин ТреворроуGenre : Action, AdventureRecorded date : 2015Encoded date : UTC 2016-11-05 09:04:44Tagged date : UTC 2016-11-05 10:08:35Cover : YesiTunEXTC : mpaa|PG-13|300|

ldes : Действие происходит через 22 года после событий «Парка Юрского периода». На острове Нублар функционирует парк, задуманный Джоном Хэммондом. Но к этому времени посещаемость уже начинает падать, и компания — владелец парка решает открыть новый аттракцион, чтобы привлечь посетителей. И вот снова тысячи людей спешат увидеть Мир Юрского периода, но безопасное на первый взгляд развлечение может обернуться угрозой для всего человечества...hdvd : 1stik : 9

VideoID : 1Format : AVCFormat/Info : Advanced Video CodecFormat profile : [email protected] settings, CABAC : YesFormat settings, ReFrames : 7 framesCodec ID : avc1Codec ID/Info : Advanced Video CodingDuration : 2h 4mnBit rate : 2 285 KbpsMaximum bit rate : 14.7 MbpsWidth : 1 280 pixelsHeight : 640 pixelsDisplay aspect ratio : 2.000Frame rate mode : ConstantFrame rate : 23.976 fpsColor space : YUVChroma subsampling : 4:2:0Bit depth : 8 bitsScan type : ProgressiveBits/(Pixel*Frame) : 0.116Stream size : 1.98 GiB (94%)Writing library : x264 core 148 r2638 7599210Encoding settings : cabac=1 / ref=7 / deblock=1:-1:-1 / analyse=0x3:0x133 / me=umh / subme=7 / psy=1 / psy_rd=1.00:0.15 / mixed_ref=1 / me_range=24 / chroma_me=1 / trellis=2 / 8x8dct=1 / cqm=0 / deadzone=21,11 / fast_pskip=1 / chroma_qp_offset=-3 / threads=3 / lookahead_threads=1 / sliced_threads=0 / nr=0 / decimate=1 / interlaced=0 / bluray_compat=0 / constrained_intra=0 / bframes=10 / b_pyramid=2 / b_adapt=2 / b_bias=0 / direct=3 / weightb=1 / open_gop=0 / weightp=2 / keyint=240 / keyint_min=23 / scenecut=40 / intra_refresh=0 / rc_lookahead=60 / rc=crf / mbtree=1 / crf=23.0 / qcomp=0.60 / qpmin=0 / qpmax=69 / qpstep=4 / ip_ratio=1.40 / aq=1:1.00Encoded date : UTC 2016-11-05 08:35:40Tagged date : UTC 2016-11-05 09:05:56

AudioID : 2Format : AACFormat/Info : Advanced Audio CodecFormat profile : LCCodec ID : 40Duration : 2h 4mnBit rate mode : VariableBit rate : 128 KbpsMaximum bit rate : 135 KbpsChannel(s) : 2 channelsChannel positions : Front: L RSampling rate : 48.0 KHzCompression mode : LossyStream size : 114 MiB (5%)Language : RussianEncoded date : UTC 2016-11-05 08:43:55Tagged date : UTC 2016-11-05 09:05:56


Трекер:  [ 05-Ноя-2016 14:30 ]

  

Скачать .torrent

Размер .torrent файла 11 KB


Размер: 2.1 GB
Хэш (hash) релиза: d35544ec23d63897be2e1afb861dbc65bc6f53d5

Торренты, похожие на [VIDEO] Мир Юрского Периода Jurassic World скачать торрент

Форум Название Автор Размер S L Добавлен
Видео (Фильмы/Клипы) ·· [VIDEO] Мир Юрского периода / Jurassic World (Колин Треворроу / Colin Trevorrow) [2015, США, фантастика, приключения, боевик, WEB-DLRip][MP4, 480x] Dub iTunes Galfimbul 599805272572 MB 0 0 1441920692

00:31

11-Сен-15

Еще никто не оставлял запись к записи скачать торрент [VIDEO] Мир Юрского Периода Jurassic World . Будь первым!

!Обратная связь