Jacqueline Lovell | Daitoshokan no Hitsujikai | Clash of Kings : The King Of Fighters versión

Скачать через торрент [MULT] Труп Невесты Corpse Bride бесплатно русская версия torrent активатор

Статистика раздачи
Размер:  1.17 GB   |    Зарегистрирован:  1 год 8 месяцев   |    .torrent скачан:  27 раз   |   
Раздают:  1  
   
загрузка...
 
Автор Сообщение

Galfimbul

avatar Galfimbul


Труп Невесты / Corpse Bride
«Ошибка оказалась смертельной»
Год выпуска: 7 сентября 2005
Оригинальное название: Corpse Bride
Страна: США, Великобритания
Жанр: мультфильм, мюзикл, фэнтези, драма, мелодрама, семейный
Возраст: 12+

Режиссер: Тим Бёртон, Майк Джонсон / Tim Burton, Mike Johnson

В ролях: Джонни Депп, Хелена Бонем Картер, Эмили Уотсон, Трэйси Уллмэн, Пол Уайтхаус, Джоэнна Ламли, Альберт Финни, Ричард Э. Грант, Кристофер Ли, Майкл Гоф

Описание: Действие развивается в европейской деревушке XIX века. Главного героя — молодого человека Виктора — силы тьмы утаскивают в преисподнюю и женят там на таинственном Трупе Невесты, в то время как его настоящая невеста Виктория ожидает своего жениха в мире живых. Несмотря на то, что проживание в Царстве мёртвых оказывается много интересней, чем его привычный викторианский образ жизни, Виктор понимает, что свою единственную любовь он не променяет ни на что ни в одном из альтернативных миров…

Продолжительность: 01:17:11
Перевод: Дублированный
Оригинальная дорожка: нет

Качество видео: BDRip Исходник: <a href="viewtopic.php?t=4779083" class="postLink">BDRemux 1080p</a> Формат: mp4
Видео кодек: MPEG-4 AVC Аудио кодек: AAC
Видео: 1280x720 at 23.976 fps, AVC at 2 042 kbps avg, 0.092 bit/pixel
Аудио №1 Rus: 48.0 KHz, AAC, 2 ch, 128.0 Kbps
Субтитры: нет
Навигация по главам: нет
avs [info]: 1280x720p 1:1 @ 24000/1001 fps (cfr)
x264 [info]: using SAR=1/1
x264 [info]: using cpu capabilities: MMX2 SSE2Fast SSSE3 Cache64
x264 [info]: profile High, level 4.1
x264 [info]: frame I:1040 Avg QP:13.22 size: 97738
x264 [info]: frame P:24802 Avg QP:16.71 size: 23053
x264 [info]: frame B:85206 Avg QP:19.72 size: 5973
x264 [info]: consecutive B-frames: 2.2% 2.1% 7.2% 31.6% 19.1% 26.7% 4.9% 4.7% 1.4%
x264 [info]: mb I I16..4: 8.0% 68.5% 23.5%
x264 [info]: mb P I16..4: 3.0% 10.5% 1.8% P16..4: 43.0% 12.8% 8.3% 0.5% 0.1% skip:20.0%
x264 [info]: mb B I16..4: 0.3% 0.9% 0.2% B16..8: 31.5% 5.6% 1.1% direct: 1.6% skip:58.7% L0:45.0% L1:48.8% BI: 6.2%
x264 [info]: 8x8 transform intra:67.6% inter:64.1%
x264 [info]: direct mvs spatial:99.9% temporal:0.1%
x264 [info]: coded y,uvDC,uvAC intra: 63.8% 69.0% 40.6% inter: 9.6% 11.4% 1.2%
x264 [info]: i16 v,h,dc,p: 40% 17% 10% 33%
x264 [info]: i8 v,h,dc,ddl,ddr,vr,hd,vl,hu: 20% 14% 23% 6% 8% 8% 7% 8% 7%
x264 [info]: i4 v,h,dc,ddl,ddr,vr,hd,vl,hu: 24% 14% 15% 6% 11% 10% 8% 7% 5%
x264 [info]: i8c dc,h,v,p: 52% 18% 22% 8%
x264 [info]: Weighted P-Frames: Y:4.0% UV:1.6%
x264 [info]: ref P L0: 50.3% 8.1% 15.9% 6.7% 5.5% 4.5% 4.0% 2.4% 2.4% 0.3% 0.0%
x264 [info]: ref B L0: 74.1% 10.6% 6.2% 3.1% 2.4% 2.0% 1.3% 0.4%
x264 [info]: ref B L1: 92.0% 8.0%
x264 [info]: kb/s:2042.16
encoded 111048 frames, 2.81 fps, 2042.16 kb/s
GeneralComplete name : D:\Torrents\Download\Trup_nevesty_2005_KinoGadget.mp4Format : MPEG-4Format profile : Base MediaCodec ID : isomFile size : 1.17 GiBDuration : 1h 17mnOverall bit rate mode : VariableOverall bit rate : 2 178 KbpsMovie name : Труп НевестыPerformer : Тим Бёртон, Майк ДжонсонGenre : Animation, Drama, FamilyRecorded date : 2005Encoded date : UTC 2016-11-04 05:56:17Tagged date : UTC 2016-11-04 06:09:37Cover : YesiTunEXTC : mpaa|PG|200|

ldes : Действие развивается в европейской деревушке XIX века. Главного героя — молодого человека Виктора — силы тьмы утаскивают в преисподнюю и женят там на таинственном Трупе Невесты, в то время как его настоящая невеста Виктория ожидает своего жениха в мире живых. Несмотря на то, что проживание в Царстве мёртвых оказывается много интересней, чем его привычный викторианский образ жизни, Виктор понимает, что свою единственную любовь он не променяет ни на что ни в одном из альтернативных миров…hdvd : 1stik : 9

VideoID : 1Format : AVCFormat/Info : Advanced Video CodecFormat profile : [email protected] settings, CABAC : YesFormat settings, ReFrames : 9 framesCodec ID : avc1Codec ID/Info : Advanced Video CodingDuration : 1h 17mnBit rate : 2 042 KbpsMaximum bit rate : 10.6 MbpsWidth : 1 280 pixelsHeight : 720 pixelsDisplay aspect ratio : 16:9Frame rate mode : ConstantFrame rate : 23.976 fpsColor space : YUVChroma subsampling : 4:2:0Bit depth : 8 bitsScan type : ProgressiveBits/(Pixel*Frame) : 0.092Stream size : 1.10 GiB (94%)Writing library : x264 core 148 r2638 7599210Encoding settings : cabac=1 / ref=9 / deblock=1:1:1 / analyse=0x3:0x133 / me=umh / subme=7 / psy=1 / psy_rd=0.40:0.00 / mixed_ref=1 / me_range=24 / chroma_me=1 / trellis=2 / 8x8dct=1 / cqm=0 / deadzone=21,11 / fast_pskip=1 / chroma_qp_offset=-2 / threads=3 / lookahead_threads=1 / sliced_threads=0 / nr=0 / decimate=1 / interlaced=0 / bluray_compat=0 / constrained_intra=0 / bframes=8 / b_pyramid=2 / b_adapt=2 / b_bias=0 / direct=3 / weightb=1 / open_gop=0 / weightp=2 / keyint=240 / keyint_min=23 / scenecut=40 / intra_refresh=0 / rc_lookahead=60 / rc=crf / mbtree=1 / crf=18.0 / qcomp=0.60 / qpmin=0 / qpmax=69 / qpstep=4 / ip_ratio=1.40 / aq=1:1.00Encoded date : UTC 2016-11-04 05:46:22Tagged date : UTC 2016-11-04 05:56:37

AudioID : 2Format : AACFormat/Info : Advanced Audio CodecFormat profile : LCCodec ID : 40Duration : 1h 17mnBit rate mode : VariableBit rate : 128 KbpsMaximum bit rate : 135 KbpsChannel(s) : 2 channelsChannel positions : Front: L RSampling rate : 48.0 KHzCompression mode : LossyStream size : 70.7 MiB (6%)Language : RussianEncoded date : UTC 2016-11-04 05:51:00Tagged date : UTC 2016-11-04 05:56:37


Трекер:  [ 04-Ноя-2016 12:30 ]

  

Скачать .torrent

Размер .torrent файла 12 KB


Размер: 1.17 GB
Хэш (hash) релиза: 387717788eb50ca0486bb7b7705b1664310133a5

Еще никто не оставлял запись к записи скачать торрент [MULT] Труп Невесты Corpse Bride . Будь первым!

!Обратная связь