Легенды ночных стражей | Chillout, Lounge, Downtempo | Жажда смерти

Скачать через торрент музыку Uchuu Patrol Luluco Space Patrol Luluco бесплатно без регистрации torrent

Статистика раздачи
Размер:  373 MB   |    Зарегистрирован:  1 год 8 месяцев   |    .torrent скачан:  35 раз   |   
Раздают:  1  
   
загрузка...
 
Автор Сообщение

Galfimbul

avatar Galfimbul


.
SPACE PATROL LULUCO Appended Disc:
Original Soundtracks & Audio Dramas
.

.

Название альбома: Original Soundtracks & Audio Dramas
Композитор: Kenichiro Suehiro
Год выпуска: 2016
Страна: Япония
Носитель: Bonus CD
Издатель (лейбл): FlyingDog
Номер по каталогу: VTCY-69
Аудио кодек: FLAC (*.flac)
Тип рипа: image+.cue
Битрейт аудио: lossless
Продолжительность: 1:10:52
Наличие сканов в содержимом раздачи: нет
.

Стафф:
Soundtrack composed and arranged by Kenichiro Suehiro.
.
[01] CRYまっくすド平日 はじめのSEASON 0:32
[02] 宇宙パトロールルル子 -MainTheme- 1:42
[03] SEASON 0 EPISODE 0 7:15
[04] ルル子デイズ 其の1 0:53
[05] OGIBUKOデイズ -普通の日常1- 1:29
[06] OGIBUKOデイズ -普通の日常2- 1:04
[07] 初恋ビッグバン 0:59
[08] OGIBUKOドタバタ 1:46
[09] ジャスティス本部長 0:54
[10] ジャッジメントガンモーフィン 1:13
[11] 出動 RuDaBaDa 1:07
[12] ルル子デイズ 其の2 0:47
[13] 現役女子中学生 1:13
[14] SEASON 1 7:35
[15] ルル子の憂鬱 1:27
[16] 崩れゆく私の普通 1:33
[17] 壊れすぎ私の普通 1:47
[18] 悲しすぎて荻窪 1:30
[19] OGIBUKO搜查 1:08
[20] OGIBUKO緊 2:06
[21] ノヴァ 1:26
[22] 荻窪サンセット 1:18
[23] ノヴァ -Piano ver- 1:15
[24] KU SO GA 1:04
[25] SEASON 3 EPISODE 2 8:42
[26] ジャ~ス~ティ~ス 1:36
[27] 極悪非道万引き 1:14
[28] 宇宙決戦 1:31
[29] ララ子 ゴッドスピード 1:17
[30] 宇宙パトロールルル子 1:06
[31] ブリッジ 不安1 0:19
[32] ブリッジ 不安2 0:20
[33] ブリッジ 安堵1 0:14
[34] ブリッジ 安堵2 0:11
[35] ブリッジ コミカル1 0:10
[36] ブリッジ コミカル2 0:11
[37] FINAL SEASON EPISODE ∞ 「僕は、次元の」 9:25
[38] Pipo Password TV edit 1:32
Exact Audio Copy V1.0 beta 2 from 29. April 2011

EAC extraction logfile from 23. September 2016, 9:00

Unknown Artist / Unknown Title

Used drive : HL-DT-STBD-RE BH10NS30 Adapter: 3 ID: 0

Read mode : SecureUtilize accurate stream : YesDefeat audio cache : YesMake use of C2 pointers : No

Read offset correction : 667Overread into Lead-In and Lead-Out : NoFill up missing offset samples with silence : YesDelete leading and trailing silent blocks : NoNull samples used in CRC calculations : NoUsed interface : Installed external ASPI interface

Used output format : Internal WAV RoutinesSample format : 44.100 Hz; 16 Bit; Stereo

TOC of the extracted CD

Track | Start | Length | Start sector | End sector --------------------------------------------------------- 1 | 0:00.00 | 0:31.55 | 0 | 2379 2 | 0:31.55 | 1:42.03 | 2380 | 10032 3 | 2:13.58 | 7:15.07 | 10033 | 42664 4 | 9:28.65 | 0:53.12 | 42665 | 46651 5 | 10:22.02 | 1:28.51 | 46652 | 53302 6 | 11:50.53 | 1:03.66 | 53303 | 58093 7 | 12:54.44 | 0:58.41 | 58094 | 62484 8 | 13:53.10 | 1:46.34 | 62485 | 70468 9 | 15:39.44 | 0:54.31 | 70469 | 74549 10 | 16:34.00 | 1:13.06 | 74550 | 80030 11 | 17:47.06 | 1:07.12 | 80031 | 85067 12 | 18:54.18 | 0:46.51 | 85068 | 88568 13 | 19:40.69 | 1:12.43 | 88569 | 94011 14 | 20:53.37 | 7:35.05 | 94012 | 128141 15 | 28:28.42 | 1:26.65 | 128142 | 134656 16 | 29:55.32 | 1:32.43 | 134657 | 141599 17 | 31:28.00 | 1:47.00 | 141600 | 149624 18 | 33:15.00 | 1:29.63 | 149625 | 156362 19 | 34:44.63 | 1:08.30 | 156363 | 161492 20 | 35:53.18 | 2:05.71 | 161493 | 170938 21 | 37:59.14 | 1:25.53 | 170939 | 177366 22 | 39:24.67 | 1:18.37 | 177367 | 183253 23 | 40:43.29 | 1:15.24 | 183254 | 188902 24 | 41:58.53 | 1:04.19 | 188903 | 193721 25 | 43:02.72 | 8:42.33 | 193722 | 232904 26 | 51:45.30 | 1:35.68 | 232905 | 240097 27 | 53:21.23 | 1:14.31 | 240098 | 245678 28 | 54:35.54 | 1:30.51 | 245679 | 252479 29 | 56:06.30 | 1:17.33 | 252480 | 258287 30 | 57:23.63 | 1:05.51 | 258288 | 263213 31 | 58:29.39 | 0:18.50 | 263214 | 264613 32 | 58:48.14 | 0:20.12 | 264614 | 266125 33 | 59:08.26 | 0:14.08 | 266126 | 267183 34 | 59:22.34 | 0:10.43 | 267184 | 267976 35 | 59:33.02 | 0:10.32 | 267977 | 268758 36 | 59:43.34 | 0:11.24 | 268759 | 269607 37 | 59:54.58 | 9:25.03 | 269608 | 311985 38 | 69:19.61 | 1:32.15 | 311986 | 318900

Range status and errors

Selected range

Filename I:\新建文件夹\SPACE PATROL LULUCO Appended Disc.wav

Peak level 98.5 % Extraction speed 0.8 X Range quality 100.0 % Copy CRC A0C193CB Copy OK

No errors occurred

End of status report

==== Log checksum 8C2F0D7CB2E701534924ED11BA324C2A2B1919F72FD819E7F47056673FE778F0 ====
REM DISCID 30109C26REM COMMENT ExactAudioCopy v1.0b2PERFORMER "末廣健一郎"TITLE "SPACE PATROL LULUCO Appended Disc"FILE "SPACE PATROL LULUCO Appended Disc.flac" WAVE TRACK 01 AUDIO TITLE "CRYまっくすド平日 はじめのSEASON" ISRC JPVI01624300 INDEX 01 00:00:00 TRACK 02 AUDIO TITLE "宇宙パトロールルル子 -MainTheme-" ISRC JPVI01624320 INDEX 00 00:30:21 INDEX 01 00:31:55 TRACK 03 AUDIO TITLE "SEASON 0 EPISODE 0" INDEX 00 02:11:24 INDEX 01 02:13:58 TRACK 04 AUDIO TITLE "ルル子デイズ 其の1" ISRC JPVI01624330 INDEX 00 09:27:32 INDEX 01 09:28:65 TRACK 05 AUDIO TITLE "OGIBUKOデイズ -普通の日常1-" ISRC JPVI01624340 INDEX 00 10:20:44 INDEX 01 10:22:02 TRACK 06 AUDIO TITLE "OGIBUKOデイズ -普通の日常2-" ISRC JPVI01624350 INDEX 00 11:49:20 INDEX 01 11:50:53 TRACK 07 AUDIO TITLE "初恋ビッグバン" ISRC JPVI01624360 INDEX 00 12:53:11 INDEX 01 12:54:44 TRACK 08 AUDIO TITLE "OGIBUKOドタバタ" ISRC JPVI01624370 INDEX 00 13:51:52 INDEX 01 13:53:10 TRACK 09 AUDIO TITLE "ジャスティス本部長" ISRC JPVI01624380 INDEX 00 15:38:11 INDEX 01 15:39:44 TRACK 10 AUDIO TITLE "ジャッジメントガンモーフィン" ISRC JPVI01624390 INDEX 00 16:32:41 INDEX 01 16:34:00 TRACK 11 AUDIO TITLE "出動 RuDaBaDa" ISRC JPVI01624400 INDEX 00 17:45:47 INDEX 01 17:47:06 TRACK 12 AUDIO TITLE "ルル子デイズ 其の2" ISRC JPVI01624410 INDEX 00 18:52:59 INDEX 01 18:54:18 TRACK 13 AUDIO TITLE "現役女子中学生" ISRC JPVI01624420 INDEX 00 19:39:35 INDEX 01 19:40:69 TRACK 14 AUDIO TITLE "SEASON 1" INDEX 00 20:51:03 INDEX 01 20:53:37 TRACK 15 AUDIO TITLE "ルル子の憂鬱" ISRC JPVI01624430 INDEX 00 28:27:09 INDEX 01 28:28:42 TRACK 16 AUDIO TITLE "崩れゆく私の普通" ISRC JPVI01624440 INDEX 00 29:53:74 INDEX 01 29:55:32 TRACK 17 AUDIO TITLE "壊れすぎ私の普通" ISRC JPVI01624450 INDEX 00 31:26:41 INDEX 01 31:28:00 TRACK 18 AUDIO TITLE "悲しすぎて荻窪" ISRC JPVI01624460 INDEX 00 33:13:41 INDEX 01 33:15:00 TRACK 19 AUDIO TITLE "OGIBUKO搜查" ISRC JPVI01624470 INDEX 00 34:43:30 INDEX 01 34:44:63 TRACK 20 AUDIO TITLE "OGIBUKO緊" ISRC JPVI01624480 INDEX 00 35:51:59 INDEX 01 35:53:18 TRACK 21 AUDIO TITLE "ノヴァ" ISRC JPVI01624490 INDEX 00 37:57:56 INDEX 01 37:59:14 TRACK 22 AUDIO TITLE "荻窪サンセット" ISRC JPVI01624500 INDEX 00 39:23:33 INDEX 01 39:24:67 TRACK 23 AUDIO TITLE "ノヴァ -Piano ver-" ISRC JPVI01624510 INDEX 00 40:41:71 INDEX 01 40:43:29 TRACK 24 AUDIO TITLE "KU SO GA" ISRC JPVI01624520 INDEX 00 41:57:20 INDEX 01 41:58:53 TRACK 25 AUDIO TITLE "SEASON 3 EPISODE 2" INDEX 00 43:00:38 INDEX 01 43:02:72 TRACK 26 AUDIO TITLE "ジャ~ス~ティ~ス" ISRC JPVI01624540 INDEX 00 51:43:72 INDEX 01 51:45:30 TRACK 27 AUDIO TITLE "極悪非道万引き" ISRC JPVI01624550 INDEX 00 53:19:64 INDEX 01 53:21:23 TRACK 28 AUDIO TITLE "宇宙決戦" ISRC JPVI01624560 INDEX 00 54:34:21 INDEX 01 54:35:54 TRACK 29 AUDIO TITLE "ララ子 ゴッドスピード" ISRC JPVI01624570 INDEX 00 56:04:71 INDEX 01 56:06:30 TRACK 30 AUDIO TITLE "宇宙パトロールルル子" ISRC JPVI01624580 INDEX 00 57:22:30 INDEX 01 57:23:63 TRACK 31 AUDIO TITLE "ブリッジ 不安1" ISRC JPVI01624590 INDEX 00 58:28:06 INDEX 01 58:29:39 TRACK 32 AUDIO TITLE "ブリッジ 不安2" ISRC JPVI01624600 INDEX 00 58:46:55 INDEX 01 58:48:14 TRACK 33 AUDIO TITLE "ブリッジ 安堵1" ISRC JPVI01624610 INDEX 00 59:06:68 INDEX 01 59:08:26 TRACK 34 AUDIO TITLE "ブリッジ 安堵2" ISRC JPVI01624620 INDEX 00 59:21:00 INDEX 01 59:22:34 TRACK 35 AUDIO TITLE "ブリッジ コミカル1" ISRC JPVI01624630 INDEX 00 59:31:43 INDEX 01 59:33:02 TRACK 36 AUDIO TITLE "ブリッジ コミカル2" ISRC JPVI01624640 INDEX 00 59:42:01 INDEX 01 59:43:34 TRACK 37 AUDIO TITLE "FINAL SEASON EPISODE ∞ 「僕は、次元の」" INDEX 00 59:52:24 INDEX 01 59:54:58 TRACK 38 AUDIO TITLE "Pipo Password TV edit" ISRC JPVI01624650 INDEX 00 69:18:27 INDEX 01 69:19:61


Трекер:  [ 04-Ноя-2016 03:00 ]

  

Скачать .torrent

Размер .torrent файла 15 KB


Размер: 373 MB
Хэш (hash) релиза: 8b811977401f7ab213d446118f99eac909abe73a

Еще никто не оставлял запись к записи скачать торрент Uchuu Patrol Luluco Space Patrol Luluco . Будь первым!

!Обратная связь