The Weather Man | Honeymoon In Vegas | It Could Happen ...

Скачать через торрент музыку Little Witch Academia, Little Witch Academia - The Enchanted Parade бесплатно без регистрации torrent

Статистика раздачи
Размер:  294 MB   |    Зарегистрирован:  1 год 9 месяцев   |    .torrent скачан:  31 раз   |   
Раздают:  1  
   
загрузка...
 
Автор Сообщение

Galfimbul

avatar Galfimbul


Little Witch Academia,
Little Witch Academia: The Enchanted Parade
Original Soundtrack's

'

Носитель: Bonus CD
Год выпуска: 2013, 2015 г.
Издатель (лейбл): TRIGGER
Страна: Япония
Аудио кодек: FLAC (*.flac)
Тип рипа: tracks+.cue
Битрейт аудио: lossless
Продолжительность: 17:22 + 28:09
Наличие сканов в содержимом раздачи: да
'

Стафф:
Composer: Michiru Oshima

Performer: Russian State Symphony Cinema Orchestra (Sergei Skripka)
Mosfilm Studio
Треклист:
01 Magic Show 2:15
02 Cafeteria 1:57
03 Flying Lesson 0:56
04 At the Dorm 1:17
05 Minotaur 1:35
06 Iron Maiden 0:57
07 Emerging Dragon 0:24
08 Here we go! 1:00
09 Battle 1:45
10 Chariot's Theme 2:04
11 Main Theme 0:55
12 Title Roll 1:40
13 Title Roll <Short ver.> 0:38
Exact Audio Copy V1.0 beta 3 from 29. August 2011

EAC extraction logfile from 23. August 2013, 2:59

Russian State Symphony Cinema Orchestra / リトルウィッチアカデミア オリジナルサウンドトラック

Used drive : PIONEER BD-RW BDR-208M Adapter: 0 ID: 1

Read mode : SecureUtilize accurate stream : YesDefeat audio cache : YesMake use of C2 pointers : No

Read offset correction : 667Overread into Lead-In and Lead-Out : NoFill up missing offset samples with silence : YesDelete leading and trailing silent blocks : NoNull samples used in CRC calculations : YesUsed interface : Native Win32 interface for Win NT & 2000Gap handling : Appended to previous track

Used output format : User Defined EncoderSelected bitrate : 128 kBit/sQuality : HighAdd ID3 tag : NoCommand line compressor : C:\Program Files (x86)\FLAC\flac.exeAdditional command line options : -8 -V -T "ARTIST=%artist%" -T "TITLE=%title%" -T "ALBUM=%albumtitle%" -T "DATE=%year%" -T "TRACKNUMBER=%tracknr%" -T "GENRE=%genre%" -T "PERFORMER=%albuminterpret%" -T "COMPOSER=%composer%" %haslyrics%--tag-from-file=LYRICS="%lyricsfile%"%haslyrics% -T "ALBUMARTIST=%albumartist%" -T "DISCNUMBER=%cdnumber%" -T "TOTALDISCS=%totalcds%" -T "TOTALTRACKS=%numtracks%" -T "COMMENT=%comment%" %source% -o %dest%

TOC of the extracted CD

Track | Start | Length | Start sector | End sector --------------------------------------------------------- 1 | 0:00.00 | 2:14.59 | 0 | 10108 2 | 2:14.59 | 1:56.42 | 10109 | 18850 3 | 4:11.26 | 0:55.55 | 18851 | 23030 4 | 5:07.06 | 1:16.54 | 23031 | 28784 5 | 6:23.60 | 1:35.06 | 28785 | 35915 6 | 7:58.66 | 0:57.36 | 35916 | 40226 7 | 8:56.27 | 0:23.67 | 40227 | 42018 8 | 9:20.19 | 1:00.13 | 42019 | 46531 9 | 10:20.32 | 1:44.71 | 46532 | 54402 10 | 12:05.28 | 2:03.73 | 54403 | 63700 11 | 14:09.26 | 0:55.22 | 63701 | 67847 12 | 15:04.48 | 1:39.50 | 67848 | 75322 13 | 16:44.23 | 0:37.61 | 75323 | 78158

Track 1

Filename S:\Temp\EAC Rips\リトルウィッチアカデミア オリジナルサウンドトラック\01 - Russian State Symphony Cinema Orchestra - マジックショー.wav

Pre-gap length 0:00:02.00

Peak level 63.0 % Extraction speed 3.4 X Track quality 99.9 % Test CRC 4468257E Copy CRC 4468257E Track not present in AccurateRip database Copy OK

Track 2

Filename S:\Temp\EAC Rips\リトルウィッチアカデミア オリジナルサウンドトラック\02 - Russian State Symphony Cinema Orchestra - カフェテリア.wav

Peak level 44.1 % Extraction speed 4.1 X Track quality 100.0 % Test CRC DB66B706 Copy CRC DB66B706 Track not present in AccurateRip database Copy OK

Track 3

Filename S:\Temp\EAC Rips\リトルウィッチアカデミア オリジナルサウンドトラック\03 - Russian State Symphony Cinema Orchestra - 飛行訓練.wav

Peak level 51.9 % Extraction speed 2.4 X Track quality 99.8 % Test CRC AAB99B72 Copy CRC AAB99B72 Track not present in AccurateRip database Copy OK

Track 4

Filename S:\Temp\EAC Rips\リトルウィッチアカデミア オリジナルサウンドトラック\04 - Russian State Symphony Cinema Orchestra - 寄宿舎にて.wav

Peak level 25.9 % Extraction speed 3.8 X Track quality 100.0 % Test CRC E8785DAF Copy CRC E8785DAF Track not present in AccurateRip database Copy OK

Track 5

Filename S:\Temp\EAC Rips\リトルウィッチアカデミア オリジナルサウンドトラック\05 - Russian State Symphony Cinema Orchestra - ミノタウロス.wav

Peak level 74.5 % Extraction speed 4.2 X Track quality 100.0 % Test CRC 65DBF914 Copy CRC 65DBF914 Track not present in AccurateRip database Copy OK

Track 6

Filename S:\Temp\EAC Rips\リトルウィッチアカデミア オリジナルサウンドトラック\06 - Russian State Symphony Cinema Orchestra - アイアンメイデン.wav

Peak level 67.0 % Extraction speed 3.7 X Track quality 100.0 % Test CRC 0737E77E Copy CRC 0737E77E Track not present in AccurateRip database Copy OK

Track 7

Filename S:\Temp\EAC Rips\リトルウィッチアカデミア オリジナルサウンドトラック\07 - Russian State Symphony Cinema Orchestra - ドラゴンの出現.wav

Peak level 78.4 % Extraction speed 1.4 X Track quality 99.5 % Test CRC 0C8F56E2 Copy CRC 0C8F56E2 Track not present in AccurateRip database Copy OK

Track 8

Filename S:\Temp\EAC Rips\リトルウィッチアカデミア オリジナルサウンドトラック\08 - Russian State Symphony Cinema Orchestra - いざ、出発!.wav

Peak level 63.9 % Extraction speed 3.8 X Track quality 100.0 % Test CRC 90FE0431 Copy CRC 90FE0431 Track not present in AccurateRip database Copy OK

Track 9

Filename S:\Temp\EAC Rips\リトルウィッチアカデミア オリジナルサウンドトラック\09 - Russian State Symphony Cinema Orchestra - 戦闘.wav

Peak level 73.4 % Extraction speed 4.7 X Track quality 100.0 % Test CRC 4F366199 Copy CRC 4F366199 Track not present in AccurateRip database Copy OK

Track 10

Filename S:\Temp\EAC Rips\リトルウィッチアカデミア オリジナルサウンドトラック\10 - Russian State Symphony Cinema Orchestra - シャリオのテーマ.wav

Peak level 64.2 % Extraction speed 5.1 X Track quality 100.0 % Test CRC 27632680 Copy CRC 27632680 Track not present in AccurateRip database Copy OK

Track 11

Filename S:\Temp\EAC Rips\リトルウィッチアカデミア オリジナルサウンドトラック\11 - Russian State Symphony Cinema Orchestra - メインテーマ.wav

Peak level 67.2 % Extraction speed 3.9 X Track quality 100.0 % Test CRC 03F2F7CC Copy CRC 03F2F7CC Track not present in AccurateRip database Copy OK

Track 12

Filename S:\Temp\EAC Rips\リトルウィッチアカデミア オリジナルサウンドトラック\12 - Russian State Symphony Cinema Orchestra - タイトルロール.wav

Peak level 80.9 % Extraction speed 5.0 X Track quality 100.0 % Test CRC A8377565 Copy CRC A8377565 Track not present in AccurateRip database Copy OK

Track 13

Filename S:\Temp\EAC Rips\リトルウィッチアカデミア オリジナルサウンドトラック\13 - Russian State Symphony Cinema Orchestra - タイトルロール [Short ver.].wav

Peak level 79.2 % Extraction speed 3.4 X Track quality 100.0 % Test CRC E35F100F Copy CRC E35F100F Track not present in AccurateRip database Copy OK

None of the tracks are present in the AccurateRip database

No errors occurred

End of status report

---- CUETools DB Plugin V2.1.3

[CTDB TOCID: 1JxSD0hSBen9x6RvzCfkaiGpdu8-] found, Submit result: already submitted[41f1be63] (1/1) Accurately ripped

==== Log checksum 537F13CD2E95A73630C174A00C0157BCC957E30FA418E5B65BB5E4EC55A20E83 ====
REM DATE 2013REM DISCID 9904120DREM COMMENT "ExactAudioCopy v1.0b3"PERFORMER "Russian State Symphony Cinema Orchestra"TITLE "Little Witch Academia Original Sound Track"FILE "01 - Magic Show (M1).wav" WAVE TRACK 01 AUDIO TITLE "Magic Show (M1)" PERFORMER "Russian State Symphony Cinema Orchestra" INDEX 01 00:00:00FILE "02 - Cafeteria (M2).wav" WAVE TRACK 02 AUDIO TITLE "Cafeteria (M2)" PERFORMER "Russian State Symphony Cinema Orchestra" INDEX 01 00:00:00FILE "03 - Flying Lesson (M3).wav" WAVE TRACK 03 AUDIO TITLE "Flying Lesson (M3)" PERFORMER "Russian State Symphony Cinema Orchestra" INDEX 01 00:00:00FILE "04 - At the Dorm (M4A).wav" WAVE TRACK 04 AUDIO TITLE "At the Dorm (M4A)" PERFORMER "Russian State Symphony Cinema Orchestra" INDEX 01 00:00:00FILE "05 - Minotaur (M4B).wav" WAVE TRACK 05 AUDIO TITLE "Minotaur (M4B)" PERFORMER "Russian State Symphony Cinema Orchestra" INDEX 01 00:00:00FILE "06 - Iron Maiden (M5).wav" WAVE TRACK 06 AUDIO TITLE "Iron Maiden (M5)" PERFORMER "Russian State Symphony Cinema Orchestra" INDEX 01 00:00:00FILE "07 - Emerging Dragon (M6).wav" WAVE TRACK 07 AUDIO TITLE "Emerging Dragon (M6)" PERFORMER "Russian State Symphony Cinema Orchestra" INDEX 01 00:00:00FILE "08 - Here we go! (M7A).wav" WAVE TRACK 08 AUDIO TITLE "Here we go! (M7A)" PERFORMER "Russian State Symphony Cinema Orchestra" INDEX 01 00:00:00FILE "09 - Battle (M7B).wav" WAVE TRACK 09 AUDIO TITLE "Battle (M7B)" PERFORMER "Russian State Symphony Cinema Orchestra" INDEX 01 00:00:00FILE "10 - Chariot's Theme (M7C).wav" WAVE TRACK 10 AUDIO TITLE "Chariot's Theme (M7C)" PERFORMER "Russian State Symphony Cinema Orchestra" INDEX 01 00:00:00FILE "11 - Main Theme (M7D).wav" WAVE TRACK 11 AUDIO TITLE "Main Theme (M7D)" PERFORMER "Russian State Symphony Cinema Orchestra" INDEX 01 00:00:00FILE "12 - Title Roll (M8).wav" WAVE TRACK 12 AUDIO TITLE "Title Roll (M8)" PERFORMER "Russian State Symphony Cinema Orchestra" INDEX 01 00:00:00FILE "13 - Title Roll (Short ver) (M8B).wav" WAVE TRACK 13 AUDIO TITLE "Title Roll (Short ver) (M8B)" PERFORMER "Russian State Symphony Cinema Orchestra" INDEX 01 00:00:00
Треклист:
01 Mushroom Menace In The Lab 1:12
02 Title Intro 0:13
03 Parade Of The Witch Hunt 1:19
04 The Three Mischiefs 0:56
05 Akko’s Idea: The Happy Time Project 1:34
06 Dance Of The Brooms 0:53
07 The White Mage Appears 0:20
08 Confrontation With Diana 0:40
09 A Trip To Town 2:14
10 Tomato Fight 1:26
11 The Evil Stirs 0:11
12 The Magic Of Chariot 0:53
13 Akko’s Parade Preparation 1:37
14 Shiny Rod’s Revival 0:39
15 Luna Nova’s Witch Parade Happy Time 1:37
16 The Giant Awakes 1:09
17 The Show Must Go On 0:46
18 Sucy To The Rescue / The Chase 1:59
19 Lotte’s Song Of The Spirits 1:35
20 The Witches Versus The Giant 2:55
21 Happy Time Ending 0:31
22 End Credits 3:30
Exact Audio Copy V1.1 from 23. June 2015

EAC extraction logfile from 30. September 2015, 21:40

Russian State Symphony Cinema Orchestra / Little Witch Academia: The Enchanted Parade Original Sound Track

Used drive : HL-DT-STBD-RE WH14NS40 Adapter: 1 ID: 0

Read mode : SecureUtilize accurate stream : YesDefeat audio cache : YesMake use of C2 pointers : No

Read offset correction : 6Overread into Lead-In and Lead-Out : NoFill up missing offset samples with silence : YesDelete leading and trailing silent blocks : NoNull samples used in CRC calculations : YesUsed interface : Native Win32 interface for Win NT & 2000Gap handling : Appended to previous track

Used output format : User Defined EncoderSelected bitrate : 1024 kBit/sQuality : HighAdd ID3 tag : NoCommand line compressor : C:\Program Files (x86)\Exact Audio Copy\FLAC\FLAC.EXEAdditional command line options : -8 -V -T "ARTIST=%artist%" -T "TITLE=%title%" -T "ALBUM=%albumtitle%" -T "DATE=%year%" -T "TRACKNUMBER=%tracknr%" -T "GENRE=%genre%" -T "PERFORMER=%albuminterpret%" -T "COMPOSER=%composer%" %haslyrics%--tag-from-file=LYRICS="%lyricsfile%"%haslyrics% -T "ALBUMARTIST=%albumartist%" -T "DISCNUMBER=%cdnumber%" -T "TOTALDISCS=%totalcds%" -T "TOTALTRACKS=%numtracks%" -T "COMMENT=%comment%" %source% -o %dest%

TOC of the extracted CD

Track | Start | Length | Start sector | End sector --------------------------------------------------------- 1 | 0:00.00 | 1:11.62 | 0 | 5386 2 | 1:11.62 | 0:12.63 | 5387 | 6349 3 | 1:24.50 | 1:18.41 | 6350 | 12240 4 | 2:43.16 | 0:55.72 | 12241 | 16437 5 | 3:39.13 | 1:34.19 | 16438 | 23506 6 | 5:13.32 | 0:52.71 | 23507 | 27477 7 | 6:06.28 | 0:20.19 | 27478 | 28996 8 | 6:26.47 | 0:40.07 | 28997 | 32003 9 | 7:06.54 | 2:14.24 | 32004 | 42077 10 | 9:21.03 | 1:25.52 | 42078 | 48504 11 | 10:46.55 | 0:11.13 | 48505 | 49342 12 | 10:57.68 | 0:52.61 | 49343 | 53303 13 | 11:50.54 | 1:37.18 | 53304 | 60596 14 | 13:27.72 | 0:38.64 | 60597 | 63510 15 | 14:06.61 | 1:36.56 | 63511 | 70766 16 | 15:43.42 | 1:09.21 | 70767 | 75962 17 | 16:52.63 | 0:45.74 | 75963 | 79411 18 | 17:38.62 | 1:58.54 | 79412 | 88315 19 | 19:37.41 | 1:35.03 | 88316 | 95443 20 | 21:12.44 | 2:55.19 | 95444 | 108587 21 | 24:07.63 | 0:31.01 | 108588 | 110913 22 | 24:38.64 | 3:30.30 | 110914 | 126693

Track 1

Filename C:\Data\EAC Rips\Little Witch Academia - The Enchanted Parade Original Sound Track (2015) [FLAC]\01 - Track01.wav

Pre-gap length 0:00:02.00

Peak level 98.8 % Extraction speed 0.7 X Track quality 100.0 % Test CRC E5BF2DE3 Copy CRC E5BF2DE3 Track not present in AccurateRip database Copy OK

Track 2

Filename C:\Data\EAC Rips\Little Witch Academia - The Enchanted Parade Original Sound Track (2015) [FLAC]\02 - Track02.wav

Peak level 98.8 % Extraction speed 0.3 X Track quality 100.0 % Test CRC B72B5833 Copy CRC B72B5833 Track not present in AccurateRip database Copy OK

Track 3

Filename C:\Data\EAC Rips\Little Witch Academia - The Enchanted Parade Original Sound Track (2015) [FLAC]\03 - Track03.wav

Peak level 71.3 % Extraction speed 0.8 X Track quality 100.0 % Test CRC EBAC7C5A Copy CRC EBAC7C5A Track not present in AccurateRip database Copy OK

Track 4

Filename C:\Data\EAC Rips\Little Witch Academia - The Enchanted Parade Original Sound Track (2015) [FLAC]\04 - Track04.wav

Peak level 98.8 % Extraction speed 0.7 X Track quality 100.0 % Test CRC A424B88B Copy CRC A424B88B Track not present in AccurateRip database Copy OK

Track 5

Filename C:\Data\EAC Rips\Little Witch Academia - The Enchanted Parade Original Sound Track (2015) [FLAC]\05 - Track05.wav

Peak level 98.8 % Extraction speed 0.7 X Track quality 99.8 % Test CRC 9BB25FAB Copy CRC 9BB25FAB Track not present in AccurateRip database Copy OK

Track 6

Filename C:\Data\EAC Rips\Little Witch Academia - The Enchanted Parade Original Sound Track (2015) [FLAC]\06 - Track06.wav

Peak level 93.2 % Extraction speed 0.8 X Track quality 100.0 % Test CRC D055AAEE Copy CRC D055AAEE Track not present in AccurateRip database Copy OK

Track 7

Filename C:\Data\EAC Rips\Little Witch Academia - The Enchanted Parade Original Sound Track (2015) [FLAC]\07 - Track07.wav

Peak level 98.8 % Extraction speed 0.4 X Track quality 99.4 % Test CRC EF894588 Copy CRC EF894588 Track not present in AccurateRip database Copy OK

Track 8

Filename C:\Data\EAC Rips\Little Witch Academia - The Enchanted Parade Original Sound Track (2015) [FLAC]\08 - Track08.wav

Peak level 99.9 % Extraction speed 0.7 X Track quality 100.0 % Test CRC B8E6AA5A Copy CRC B8E6AA5A Track not present in AccurateRip database Copy OK

Track 9

Filename C:\Data\EAC Rips\Little Witch Academia - The Enchanted Parade Original Sound Track (2015) [FLAC]\09 - Track09.wav

Peak level 45.5 % Extraction speed 1.1 X Track quality 100.0 % Test CRC FC33FB74 Copy CRC FC33FB74 Track not present in AccurateRip database Copy OK

Track 10

Filename C:\Data\EAC Rips\Little Witch Academia - The Enchanted Parade Original Sound Track (2015) [FLAC]\10 - Track10.wav

Peak level 98.8 % Extraction speed 1.0 X Track quality 100.0 % Test CRC FC6A33E5 Copy CRC FC6A33E5 Track not present in AccurateRip database Copy OK

Track 11

Filename C:\Data\EAC Rips\Little Witch Academia - The Enchanted Parade Original Sound Track (2015) [FLAC]\11 - Track11.wav

Peak level 97.6 % Extraction speed 0.3 X Track quality 100.0 % Test CRC 03EFB804 Copy CRC 03EFB804 Track not present in AccurateRip database Copy OK

Track 12

Filename C:\Data\EAC Rips\Little Witch Academia - The Enchanted Parade Original Sound Track (2015) [FLAC]\12 - Track12.wav

Peak level 98.8 % Extraction speed 0.6 X Track quality 99.7 % Test CRC 7D9A6099 Copy CRC 7D9A6099 Track not present in AccurateRip database Copy OK

Track 13

Filename C:\Data\EAC Rips\Little Witch Academia - The Enchanted Parade Original Sound Track (2015) [FLAC]\13 - Track13.wav

Peak level 98.8 % Extraction speed 0.8 X Track quality 99.8 % Test CRC 4E1ECCC0 Copy CRC 4E1ECCC0 Track not present in AccurateRip database Copy OK

Track 14

Filename C:\Data\EAC Rips\Little Witch Academia - The Enchanted Parade Original Sound Track (2015) [FLAC]\14 - Track14.wav

Peak level 98.8 % Extraction speed 0.5 X Track quality 99.7 % Test CRC ED3F7A12 Copy CRC ED3F7A12 Track not present in AccurateRip database Copy OK

Track 15

Filename C:\Data\EAC Rips\Little Witch Academia - The Enchanted Parade Original Sound Track (2015) [FLAC]\15 - Track15.wav

Peak level 98.8 % Extraction speed 1.1 X Track quality 100.0 % Test CRC 810318D6 Copy CRC 810318D6 Track not present in AccurateRip database Copy OK

Track 16

Filename C:\Data\EAC Rips\Little Witch Academia - The Enchanted Parade Original Sound Track (2015) [FLAC]\16 - Track16.wav

Peak level 99.9 % Extraction speed 1.0 X Track quality 100.0 % Test CRC 618B7CAF Copy CRC 618B7CAF Track not present in AccurateRip database Copy OK

Track 17

Filename C:\Data\EAC Rips\Little Witch Academia - The Enchanted Parade Original Sound Track (2015) [FLAC]\17 - Track17.wav

Peak level 98.8 % Extraction speed 0.9 X Track quality 100.0 % Test CRC 20161401 Copy CRC 20161401 Track not present in AccurateRip database Copy OK

Track 18

Filename C:\Data\EAC Rips\Little Witch Academia - The Enchanted Parade Original Sound Track (2015) [FLAC]\18 - Track18.wav

Peak level 98.8 % Extraction speed 1.3 X Track quality 100.0 % Test CRC 033D96A1 Copy CRC 033D96A1 Track not present in AccurateRip database Copy OK

Track 19

Filename C:\Data\EAC Rips\Little Witch Academia - The Enchanted Parade Original Sound Track (2015) [FLAC]\19 - Track19.wav

Peak level 85.4 % Extraction speed 1.2 X Track quality 100.0 % Test CRC 4262CBDF Copy CRC 4262CBDF Track not present in AccurateRip database Copy OK

Track 20

Filename C:\Data\EAC Rips\Little Witch Academia - The Enchanted Parade Original Sound Track (2015) [FLAC]\20 - Track20.wav

Peak level 98.8 % Extraction speed 1.2 X Track quality 99.9 % Test CRC 51408DD2 Copy CRC 51408DD2 Track not present in AccurateRip database Copy OK

Track 21

Filename C:\Data\EAC Rips\Little Witch Academia - The Enchanted Parade Original Sound Track (2015) [FLAC]\21 - Track21.wav

Peak level 98.8 % Extraction speed 0.8 X Track quality 100.0 % Test CRC 9958C343 Copy CRC 9958C343 Track not present in AccurateRip database Copy OK

Track 22

Filename C:\Data\EAC Rips\Little Witch Academia - The Enchanted Parade Original Sound Track (2015) [FLAC]\22 - Track22.wav

Peak level 98.8 % Extraction speed 1.6 X Track quality 100.0 % Test CRC 6E341542 Copy CRC 6E341542 Track not present in AccurateRip database Copy OK

None of the tracks are present in the AccurateRip database

No errors occurred

End of status report

---- CUETools DB Plugin V2.1.6

[CTDB TOCID: ilLx.LDW3M7nLEwjY9tOA_qTNFA-] foundSubmit result: already submittedTrack | CTDB Status 1 | (2/2) Accurately ripped 2 | (2/2) Accurately ripped 3 | (2/2) Accurately ripped 4 | (2/2) Accurately ripped 5 | (2/2) Accurately ripped 6 | (2/2) Accurately ripped 7 | (2/2) Accurately ripped 8 | (2/2) Accurately ripped 9 | (2/2) Accurately ripped 10 | (2/2) Accurately ripped 11 | (2/2) Accurately ripped 12 | (2/2) Accurately ripped 13 | (2/2) Accurately ripped 14 | (2/2) Accurately ripped 15 | (2/2) Accurately ripped 16 | (2/2) Accurately ripped 17 | (2/2) Accurately ripped 18 | (2/2) Accurately ripped 19 | (2/2) Accurately ripped 20 | (2/2) Accurately ripped 21 | (2/2) Accurately ripped 22 | (2/2) Accurately ripped

==== Log checksum 639B6FAC546C4D71262702D4A5A991F028D36C88B6A676783EAADAEE0B9D8E8B ====
REM GENRE AnimeREM DATE 2015REM DISCID 28069916REM COMMENT "ExactAudioCopy v1.1"PERFORMER "Russian State Symphony Cinema Orchestra"TITLE "Little Witch Academia: The Enchanted Parade Original Sound Track"FILE "01 - Mushroom Menace In The Lab.wav" WAVE TRACK 01 AUDIO TITLE "Mushroom Menace In The Lab" PERFORMER "Russian State Symphony Cinema Orchestra" INDEX 01 00:00:00FILE "02 - Title Intro.wav" WAVE TRACK 02 AUDIO TITLE "Title Intro" PERFORMER "Russian State Symphony Cinema Orchestra" INDEX 01 00:00:00FILE "03 - Parade Of The Witch Hunt.wav" WAVE TRACK 03 AUDIO TITLE "Parade Of The Witch Hunt" PERFORMER "Russian State Symphony Cinema Orchestra" INDEX 01 00:00:00FILE "04 - The Three Mischiefs.wav" WAVE TRACK 04 AUDIO TITLE "The Three Mischiefs" PERFORMER "Russian State Symphony Cinema Orchestra" INDEX 01 00:00:00FILE "05 - Akko’s Idea- The Happy Time Project.wav" WAVE TRACK 05 AUDIO TITLE "Akko’s Idea- The Happy Time Project" PERFORMER "Russian State Symphony Cinema Orchestra" INDEX 01 00:00:00FILE "06 - Dance Of The Brooms.wav" WAVE TRACK 06 AUDIO TITLE "Dance Of The Brooms" PERFORMER "Russian State Symphony Cinema Orchestra" INDEX 01 00:00:00FILE "07 - The White Mage Appears.wav" WAVE TRACK 07 AUDIO TITLE "The White Mage Appears" PERFORMER "Russian State Symphony Cinema Orchestra" INDEX 01 00:00:00FILE "08 - Confrontation With Diana.wav" WAVE TRACK 08 AUDIO TITLE "Confrontation With Diana" PERFORMER "Russian State Symphony Cinema Orchestra" INDEX 01 00:00:00FILE "09 - A Trip To Town.wav" WAVE TRACK 09 AUDIO TITLE "A Trip To Town" PERFORMER "Russian State Symphony Cinema Orchestra" INDEX 01 00:00:00FILE "10 - Tomato Fight.wav" WAVE TRACK 10 AUDIO TITLE "Tomato Fight" PERFORMER "Russian State Symphony Cinema Orchestra" INDEX 01 00:00:00FILE "11 - The Evil Stirs.wav" WAVE TRACK 11 AUDIO TITLE "The Evil Stirs" PERFORMER "Russian State Symphony Cinema Orchestra" INDEX 01 00:00:00FILE "12 - The Magic Of Chariot.wav" WAVE TRACK 12 AUDIO TITLE "The Magic Of Chariot" PERFORMER "Russian State Symphony Cinema Orchestra" INDEX 01 00:00:00FILE "13 - Akko’s Parade Preparation.wav" WAVE TRACK 13 AUDIO TITLE "Akko’s Parade Preparation" PERFORMER "Russian State Symphony Cinema Orchestra" INDEX 01 00:00:00FILE "14 - Shiny Rod’s Revival.wav" WAVE TRACK 14 AUDIO TITLE "Shiny Rod’s Revival" PERFORMER "Russian State Symphony Cinema Orchestra" INDEX 01 00:00:00FILE "15 - Luna Nova’s Witch Parade Happy Time.wav" WAVE TRACK 15 AUDIO TITLE "Luna Nova’s Witch Parade Happy Time" PERFORMER "Russian State Symphony Cinema Orchestra" INDEX 01 00:00:00FILE "16 - The Giant Awakes.wav" WAVE TRACK 16 AUDIO TITLE "The Giant Awakes" PERFORMER "Russian State Symphony Cinema Orchestra" INDEX 01 00:00:00FILE "17 - The Show Must Go On.wav" WAVE TRACK 17 AUDIO TITLE "The Show Must Go On" PERFORMER "Russian State Symphony Cinema Orchestra" INDEX 01 00:00:00FILE "18 - Sucy To The Rescue - The Chase.wav" WAVE TRACK 18 AUDIO TITLE "Sucy To The Rescue - The Chase" PERFORMER "Russian State Symphony Cinema Orchestra" INDEX 01 00:00:00FILE "19 - Lotte’s Song Of The Spirits.wav" WAVE TRACK 19 AUDIO TITLE "Lotte’s Song Of The Spirits" PERFORMER "Russian State Symphony Cinema Orchestra" INDEX 01 00:00:00FILE "20 - The Witches Versus The Giant.wav" WAVE TRACK 20 AUDIO TITLE "The Witches Versus The Giant" PERFORMER "Russian State Symphony Cinema Orchestra" INDEX 01 00:00:00FILE "21 - Happy Time Ending.wav" WAVE TRACK 21 AUDIO TITLE "Happy Time Ending" PERFORMER "Russian State Symphony Cinema Orchestra" INDEX 01 00:00:00FILE "22 - End Credits.wav" WAVE TRACK 22 AUDIO TITLE "End Credits" PERFORMER "Russian State Symphony Cinema Orchestra" INDEX 01 00:00:00


Трекер:  [ 04-Ноя-2016 03:00 ]

  

Скачать .torrent

Размер .torrent файла 17 KB


Размер: 294 MB
Хэш (hash) релиза: 2dda3d68ae4da62d0ed0d9878bb2e5c979f30fc7

Еще никто не оставлял запись к записи скачать торрент Little Witch Academia, Little Witch Academia - The Enchanted Parade . Будь первым!

!Обратная связь