SearchCyberLink Powe
business controlled assesment - 1344 Words

Скачать через торрент [VIDEO] Тренер McFarland, USA бесплатно русская версия torrent активатор

Статистика раздачи
Размер:  2.38 GB   |    Зарегистрирован:  1 год 5 месяцев   |    .torrent скачан:  25 раз   |   
Раздают:  1  
   
загрузка...
 
Автор Сообщение

Galfimbul

avatar Galfimbul


Тренер / McFarland, USA
«Champions can come from anywhere»
Дата выхода: 9 февраля 2015
Оригинальное название: McFarland, USA
Страна: США
Жанр: драма, биография, спорт
Возраст: 12+

Режиссер: Ники Каро / Niki Caro

В ролях: Кевин Костнер, Рамиро Родригес, Карлос Праттс, Джонни Ортиз, Рафаэль Мартинез, Гектор Дюран, Серджо Авелар, Майкл Агеро, Диана-Мария Рива, Омар Лейва

Описание: История, основанная на реальных событиях. В начале девяностых, в маленьком городке МакФарланд, профессиональный тренер создает команду по легкой атлетике из обычных сорванцов и мелких «хулиганов», и приводит эту команду до вершины спортивного Олимпа. Население МакФарланда — это 90 процентов латиноамериканцы, которые приехали в США под видом переселенцев и беженцев…

Продолжительность: 02:09:04
Перевод: Профессиональный многоголосый
Оригинальная дорожка: нет

Качество видео: BDRip Формат: mp4
Видео кодек: MPEG-4 AVC Аудио кодек: AAC
Видео: 1280x536 at 23.976 fps, AVC at 2 486 kbps avg, 0.151 bit/pixel
Аудио №1 Rus: 44.1 KHz, AAC, 2 ch, 149.0 Kbps
Субтитры: нет
Навигация по главам: нет
GeneralComplete name : D:\Torrents\Download\Trener.2015.D.BDRip.720p_KinoGadget.mp4Format : MPEG-4Format profile : Base MediaCodec ID : isomFile size : 2.38 GiBDuration : 2h 9mnOverall bit rate mode : VariableOverall bit rate : 2 640 KbpsMovie name : ТренерPerformer : Ники КароGenre : Drama, SportsRecorded date : 2015Encoded date : UTC 2015-06-24 16:34:18Tagged date : UTC 2015-06-24 17:54:15Cover : YesiTunEXTC : mpaa|PG|200|

ldes : История, основанная на реальных событиях. В начале девяностых, в маленьком городке МакФарланд, профессиональный тренер создает команду по легкой атлетике из обычных сорванцов и мелких «хулиганов», и приводит эту команду до вершины спортивного Олимпа. Население МакФарланда — это 90 процентов латиноамериканцы, которые приехали в США под видом переселенцев и беженцев…hdvd : 1stik : 9

VideoID : 1Format : AVCFormat/Info : Advanced Video CodecFormat profile : [email protected] settings, CABAC : YesFormat settings, ReFrames : 11 framesCodec ID : avc1Codec ID/Info : Advanced Video CodingDuration : 2h 8mnBit rate : 2 486 KbpsMaximum bit rate : 12.4 MbpsWidth : 1 280 pixelsHeight : 536 pixelsDisplay aspect ratio : 2.40:1Frame rate mode : ConstantFrame rate : 23.976 fpsColor space : YUVChroma subsampling : 4:2:0Bit depth : 8 bitsScan type : ProgressiveBits/(Pixel*Frame) : 0.151Stream size : 2.24 GiB (94%)Writing library : x264 core 146 r2538 121396cEncoding settings : cabac=1 / ref=11 / deblock=1:-1:-1 / analyse=0x3:0x133 / me=umh / subme=9 / psy=1 / psy_rd=1.00:0.00 / mixed_ref=1 / me_range=24 / chroma_me=1 / trellis=2 / 8x8dct=1 / cqm=0 / deadzone=21,11 / fast_pskip=1 / chroma_qp_offset=-2 / threads=3 / lookahead_threads=1 / sliced_threads=0 / nr=0 / decimate=1 / interlaced=0 / bluray_compat=0 / constrained_intra=0 / bframes=4 / b_pyramid=2 / b_adapt=2 / b_bias=0 / direct=3 / weightb=1 / open_gop=0 / weightp=2 / keyint=240 / keyint_min=23 / scenecut=40 / intra_refresh=0 / rc_lookahead=60 / rc=crf / mbtree=1 / crf=21.0 / qcomp=0.60 / qpmin=0 / qpmax=69 / qpstep=4 / ip_ratio=1.40 / aq=1:1.50Encoded date : UTC 2015-06-24 15:11:31Tagged date : UTC 2015-06-24 16:37:04

AudioID : 2Format : AACFormat/Info : Advanced Audio CodecFormat profile : LCCodec ID : 40Duration : 2h 9mnBit rate mode : VariableBit rate : 149 KbpsMaximum bit rate : 222 KbpsChannel(s) : 2 channelsChannel positions : Front: L RSampling rate : 44.1 KHzCompression mode : LossyStream size : 138 MiB (6%)Language : RussianEncoded date : UTC 2015-06-24 16:36:40Tagged date : UTC 2015-06-24 16:37:04


Трекер:  [ 03-Ноя-2016 10:00 ]

  

Скачать .torrent

Размер .torrent файла 12 KB


Размер: 2.38 GB
Хэш (hash) релиза: 46f5f53caf5238baa93cc31cf254641dfc1081a5

Еще никто не оставлял запись к записи скачать торрент [VIDEO] Тренер McFarland, USA . Будь первым!

!Обратная связь