ダウンロード APK | Drums - リアルなドラムセット・ゲーム | Rogue One (2016)

Скачать через торрент [VIDEO] Гравитация Gravity бесплатно русская версия torrent активатор

Статистика раздачи
Размер:  1.3 GB   |    Зарегистрирован:  1 год 8 месяцев   |    .torrent скачан:  52 раза   |   
Раздают:  1  
   
загрузка...
 
Автор Сообщение

Galfimbul

avatar Galfimbul


Гравитация / Gravity
«Не отпускай»
Год выпуска: 28 августа 2013
Оригинальное название: Gravity
Страна: Великобритания, США
Жанр: фантастика, триллер, драма, приключения
Возраст: 12+

Режиссер: Альфонсо Куарон / Alfonso Cuarón

В ролях: Сандра Буллок, Джордж Клуни, Эд Харрис, Орто Игнатиуссен, Фалдут Шарма, Эми Уоррен, Башер Сэвэдж, Адам Козенс

Описание: Доктор Райан Стоун, блестящий специалист в области медицинского инжиниринга, отправляется в свою первую космическую миссию под командованием ветерана астронавтики Мэтта Ковальски, для которого этот полет — последний перед отставкой. Но во время, казалось бы, рутинной работы за бортом случается катастрофа.

Шаттл уничтожен, а Стоун и Ковальски остаются совершенно одни; они находятся в связке друг с другом, и все, что они могут, — это двигаться по орбите в абсолютно черном пространстве без всякой связи с Землей и какой-либо надежды на спасение.

Продолжительность: 01:30:58
Перевод: Дублированный
Оригинальная дорожка: нет

Качество видео: BDRip Исходник: Blu-Ray Remux (1080p) Формат: mp4
Видео кодек: MPEG-4 AVC Аудио кодек: AAC
Видео: 1280x532 at 23.976 fps, AVC at 1 916 kbps avg, 0.117 bit/pixel
Аудио №1 Rus: 48.0 KHz, AAC, 2 ch, 128.0 Kbps
Субтитры: нет
Навигация по главам: нет
avs [info]: 1280x532p 1:1 @ 24000/1001 fps (cfr)
x264 [info]: using SAR=1/1
x264 [info]: using cpu capabilities: MMX2 SSE2Fast SSSE3 Cache64
x264 [info]: profile High, level 4.1
x264 [info]: frame I:641 Avg QP:16.91 size: 82231
x264 [info]: frame P:29399 Avg QP:20.64 size: 24476
x264 [info]: frame B:100832 Avg QP:23.45 size: 5306
x264 [info]: consecutive B-frames: 1.3% 2.3% 6.3% 35.9% 18.4% 28.0% 7.8%
x264 [info]: mb I I16..4: 12.1% 65.0% 22.9%
x264 [info]: mb P I16..4: 1.5% 9.0% 1.5% P16..4: 42.1% 15.5% 13.2% 0.6% 0.3% skip:16.2%
x264 [info]: mb B I16..4: 0.1% 0.8% 0.2% B16..8: 40.0% 5.2% 1.0% direct: 3.3% skip:49.4% L0:41.8% L1:49.4% BI: 8.8%
x264 [info]: 8x8 transform intra:73.0% inter:69.3%
x264 [info]: direct mvs spatial:99.3% temporal:0.7%
x264 [info]: coded y,uvDC,uvAC intra: 67.0% 75.9% 46.3% inter: 15.1% 20.0% 3.6%
x264 [info]: i16 v,h,dc,p: 36% 16% 10% 39%
x264 [info]: i8 v,h,dc,ddl,ddr,vr,hd,vl,hu: 17% 14% 22% 6% 9% 8% 9% 7% 8%
x264 [info]: i4 v,h,dc,ddl,ddr,vr,hd,vl,hu: 34% 13% 13% 5% 9% 7% 9% 5% 5%
x264 [info]: i8c dc,h,v,p: 58% 18% 17% 7%
x264 [info]: Weighted P-Frames: Y:7.6% UV:3.6%
x264 [info]: ref P L0: 51.6% 15.2% 15.2% 5.6% 4.1% 3.1% 2.7% 2.1% 0.4% 0.0%
x264 [info]: ref B L0: 83.9% 7.6% 3.6% 1.9% 1.6% 0.8% 0.5%
x264 [info]: ref B L1: 95.0% 5.0%
x264 [info]: kb/s:1916.02
encoded 130872 frames, 2.80 fps, 1916.02 kb/s
GeneralComplete name : D:\Torrents\Download\Gravitaciya_2013_KinoGadget.mp4Format : MPEG-4Format profile : Base MediaCodec ID : isomFile size : 1.30 GiBDuration : 1h 30mnOverall bit rate mode : VariableOverall bit rate : 2 052 KbpsMovie name : ГравитацияPerformer : Альфонсо КуаронGenre : Adventure, Drama, ThrillerRecorded date : 2013Encoded date : UTC 2016-11-03 04:01:16Tagged date : UTC 2016-11-03 05:03:18Cover : YesiTunEXTC : mpaa|PG-13|300|

ldes : Доктор Райан Стоун, блестящий специалист в области медицинского инжиниринга, отправляется в свою первую космическую миссию под командованием ветерана астронавтики Мэтта Ковальски, для которого этот полет — последний перед отставкой. Но во время, казалось бы, рутинной работы за бортом случается катастрофа. / / Шаттл уничтожен, а Стоун и Ковальски остаются совершенно одни; они находятся в связке друг с другом, и все, что они могут, — это двигаться по орбите в абсолютно черном пространстве без всякой связи с Землей и какой-либо надежды на спасение.hdvd : 1stik : 9

VideoID : 1Format : AVCFormat/Info : Advanced Video CodecFormat profile : [email protected] settings, CABAC : YesFormat settings, ReFrames : 8 framesCodec ID : avc1Codec ID/Info : Advanced Video CodingDuration : 1h 30mnBit rate : 1 916 KbpsMaximum bit rate : 11.7 MbpsWidth : 1 280 pixelsHeight : 532 pixelsDisplay aspect ratio : 2.40:1Frame rate mode : ConstantFrame rate : 23.976 fpsColor space : YUVChroma subsampling : 4:2:0Bit depth : 8 bitsScan type : ProgressiveBits/(Pixel*Frame) : 0.117Stream size : 1.22 GiB (93%)Writing library : x264 core 148 r2638 7599210Encoding settings : cabac=1 / ref=8 / deblock=1:-1:-1 / analyse=0x3:0x133 / me=umh / subme=7 / psy=1 / psy_rd=1.00:0.15 / mixed_ref=1 / me_range=24 / chroma_me=1 / trellis=2 / 8x8dct=1 / cqm=0 / deadzone=21,11 / fast_pskip=1 / chroma_qp_offset=-3 / threads=3 / lookahead_threads=1 / sliced_threads=0 / nr=0 / decimate=1 / interlaced=0 / bluray_compat=0 / constrained_intra=0 / bframes=6 / b_pyramid=2 / b_adapt=2 / b_bias=0 / direct=3 / weightb=1 / open_gop=0 / weightp=2 / keyint=240 / keyint_min=23 / scenecut=40 / intra_refresh=0 / rc_lookahead=60 / rc=crf / mbtree=1 / crf=21.0 / qcomp=0.60 / qpmin=0 / qpmax=69 / qpstep=4 / ip_ratio=1.40 / aq=1:1.00Encoded date : UTC 2016-11-03 03:47:39Tagged date : UTC 2016-11-03 04:02:11

AudioID : 2Format : AACFormat/Info : Advanced Audio CodecFormat profile : LCCodec ID : 40Duration : 1h 30mnBit rate mode : VariableBit rate : 128 KbpsMaximum bit rate : 135 KbpsChannel(s) : 2 channelsChannel positions : Front: L RSampling rate : 48.0 KHzCompression mode : LossyStream size : 83.3 MiB (6%)Language : RussianEncoded date : UTC 2016-11-03 03:53:08Tagged date : UTC 2016-11-03 04:02:11


Трекер:  [ 03-Ноя-2016 08:30 ]

  

Скачать .torrent

Размер .torrent файла 13 KB


Размер: 1.3 GB
Хэш (hash) релиза: b85077a66f25f85b959a4c7c720d7cf39c6199f5

Торренты, похожие на [VIDEO] Гравитация Gravity скачать торрент

Форум Название Автор Размер S L Добавлен
Видео (Фильмы/Клипы) ·· [VIDEO] Гравитация / Gravity (Альфонсо Куарон / Alfonso Cuaron) [2013 г., фантастика, триллер, драма, BDRip] [MP4, 960x] Galfimbul 10488570351000 MB 0 0 1417543955

21:12

2-Дек-14

Еще никто не оставлял запись к записи скачать торрент [VIDEO] Гравитация Gravity . Будь первым!

!Обратная связь