Bill Blass Womens Sutton Loafer Flat PAIAZla | Arts populaires | Selena Gomez – Seven Heavens New Album

Скачать через торрент [VIDEO] Пришествие Дьявола Devils Due бесплатно русская версия torrent активатор

Статистика раздачи
Размер:  1.44 GB   |    Зарегистрирован:  1 год 8 месяцев   |    .torrent скачан:  27 раз   |   
Раздают:  1  
   
загрузка...
 
Автор Сообщение

Galfimbul

avatar Galfimbul


Пришествие Дьявола / Devil's Due
«Не на всё воля божья»
Год выпуска: 16 января 2014
Оригинальное название: Devil's Due
Страна: США
Жанр: ужасы, детектив
Возраст: 16+

Режиссер: Мэттью Беттинелли, Тайлер Джиллетт / Matthew Bettinelli, Tyler Gillett

В ролях: Эллисон Миллер, Зак Гилфорд, Сэм Андерсон, Роджер Пейано, Ванесса Рэй, Билл Мартин Уильямс, Джеральдин Сингер, Джулия Дентон Френсис, Колин Уолкер, Мэдисон Вульф

Описание: После странной ночи во время их медового месяца молодожены сталкиваются с проблемой незапланированной беременности. Постепенно муж начинает замечать необычные изменения в поведении жены, поначалу они списывают это на нервы, но по прошествии нескольких месяцев становится очевидным, что перемены в ее теле и разуме имеют более зловещее происхождение…

Продолжительность: 01:29:01
Перевод: Дублированный
Оригинальная дорожка: нет

Качество видео: BDRip Формат: mp4
Видео кодек: MPEG-4 AVC Аудио кодек: AAC
Видео: 1280x688 at 23.976 fps, AVC at 2 150 kbps avg, 0.102 bit/pixel
Аудио №1 Rus: 44.1 KHz, AAC, 2 ch, 149.0 Kbps
Субтитры: нет
Навигация по главам: нет
GeneralComplete name : D:\Torrents\Download\Prishestvie.Djavola.2014.D.BDRip.720p_KinoGadget.mp4Format : MPEG-4Format profile : Base MediaCodec ID : isomFile size : 1.44 GiBDuration : 1h 29mnOverall bit rate mode : VariableOverall bit rate : 2 308 KbpsMovie name : Пришествие ДьяволаPerformer : Мэттью Беттинелли, Тайлер ДжиллеттGenre : Horror, MysteryRecorded date : 2014Encoded date : UTC 2015-06-28 18:27:01Tagged date : UTC 2015-06-28 19:06:22Cover : YesiTunEXTC : mpaa|R|400|

ldes : После странной ночи во время их медового месяца молодожены сталкиваются с проблемой незапланированной беременности. Постепенно муж начинает замечать необычные изменения в поведении жены, поначалу они списывают это на нервы, но по прошествии нескольких месяцев становится очевидным, что перемены в ее теле и разуме имеют более зловещее происхождение…hdvd : 1stik : 9

VideoID : 1Format : AVCFormat/Info : Advanced Video CodecFormat profile : [email protected] settings, CABAC : YesFormat settings, ReFrames : 9 framesCodec ID : avc1Codec ID/Info : Advanced Video CodingDuration : 1h 29mnBit rate : 2 150 KbpsMaximum bit rate : 18.0 MbpsWidth : 1 280 pixelsHeight : 688 pixelsDisplay aspect ratio : 1.860Frame rate mode : ConstantFrame rate : 23.976 fpsColor space : YUVChroma subsampling : 4:2:0Bit depth : 8 bitsScan type : ProgressiveBits/(Pixel*Frame) : 0.102Stream size : 1.34 GiB (93%)Writing library : x264 core 146 r2538 121396cEncoding settings : cabac=1 / ref=9 / deblock=1:-1:-1 / analyse=0x3:0x133 / me=umh / subme=9 / psy=1 / psy_rd=1.00:0.00 / mixed_ref=1 / me_range=24 / chroma_me=1 / trellis=2 / 8x8dct=1 / cqm=0 / deadzone=21,11 / fast_pskip=1 / chroma_qp_offset=-2 / threads=3 / lookahead_threads=1 / sliced_threads=0 / nr=0 / decimate=1 / interlaced=0 / bluray_compat=0 / constrained_intra=0 / bframes=4 / b_pyramid=2 / b_adapt=2 / b_bias=0 / direct=3 / weightb=1 / open_gop=0 / weightp=2 / keyint=240 / keyint_min=23 / scenecut=40 / intra_refresh=0 / rc_lookahead=60 / rc=crf / mbtree=1 / crf=21.0 / qcomp=0.60 / qpmin=0 / qpmax=69 / qpstep=4 / ip_ratio=1.40 / aq=1:1.00Encoded date : UTC 2015-06-28 08:05:01Tagged date : UTC 2015-06-28 18:28:50

AudioID : 2Format : AACFormat/Info : Advanced Audio CodecFormat profile : LCCodec ID : 40Duration : 1h 29mnBit rate mode : VariableBit rate : 149 KbpsMaximum bit rate : 235 KbpsChannel(s) : 2 channelsChannel positions : Front: L RSampling rate : 44.1 KHzCompression mode : LossyStream size : 95.1 MiB (6%)Language : RussianEncoded date : UTC 2015-06-28 18:27:56Tagged date : UTC 2015-06-28 18:28:50


Трекер:  [ 02-Ноя-2016 23:00 ]

  

Скачать .torrent

Размер .torrent файла 15 KB


Размер: 1.44 GB
Хэш (hash) релиза: bc17518849c8437df6ed531e44c25f27a10ff042

Еще никто не оставлял запись к записи скачать торрент [VIDEO] Пришествие Дьявола Devils Due . Будь первым!

!Обратная связь