Гонка века | Слушать аудиокнигу | Télécharger

Скачать через торрент [VIDEO] В чужом ряду Changing Lanes бесплатно русская версия torrent активатор

Статистика раздачи
Размер:  1.78 GB   |    Зарегистрирован:  1 год 8 месяцев   |    .torrent скачан:  23 раза   |   
Раздают:  1  
   
загрузка...
 
Автор Сообщение

Galfimbul

avatar Galfimbul


В чужом ряду / Changing Lanes
«Один неверный поворот влечет за собой другие...»
Год выпуска: 7 апреля 2002
Оригинальное название: Changing Lanes
Страна: США
Жанр: триллер, драма
Возраст: 16+

Режиссер: Роджер Мишелл / Roger Michell

В ролях: Бен Аффлек, Сэмюэл Л. Джексон, Ким Стонтон, Тони Коллетт, Сидни Поллак, Тина Слоун, Ричард Дженкинс, Акил Уолкер, Коул Хоукинс, Айлин Гетз, Дженнифер Дандас, Мэтт Мэллой, Аманда Пит, Мира Лукреция Тейлор, Брюс Олтмен, Джо Грифази, Анджела Геталс, Кевин Сасмэн, Сьюзэн Вэрон, Джим Лавлетт, Уильям Хёрт, Джон Бенжамин Хикки, Дилан Бэйкер, Сюзанн Хевнер

Описание: Гэвин Банек — энергичный молодой человек, работающий юристом в фирме своего тестя на Уолл Стрит. Дойл Гипсон — представитель страховой компании, возвращающийся к нормальной жизни после алкоголизма. Его жена развелась с ним, и теперь планирует перебраться из Нью-Йорка в Портланд вместе с двумя их детьми.

Нью-Йорк, Пятница. Гипсон торопится в суд, чтобы отстоять там право видеться со своими сыновьями. Банек же едет на своем Мерседесе в суд, чтобы заверить одно многомиллионное завещание. Машины Банека и Гипсона оказываются в соседних рядах на дороге. Гипсон слишком занят обдумыванием своей речи в суде, а Банека отвлекает звонок по мобильному телефону. Они не замечают машин друг друга, один неверный поворот, и вот уже Банек и Гипсон — виновники дорожно-транспортного происшествия.

Жертв нет, однако ссора этих двух совершенно разных людей будет иметь большие последствия для каждого из них. Этот случай на дороге заставит двух незнакомцев развязать войну друг против друга. Со звериной ожесточенностью они будут пытаться отомстить друг другу, а гнев приведет каждого из них к краю самоуничтожения…

Продолжительность: 01:38:44
Перевод: Дублированный
Оригинальная дорожка: нет

Качество видео: BDRip Формат: mp4
Видео кодек: MPEG-4 AVC Аудио кодек: AAC
Видео: 1280x544 at 23.976 fps, AVC at 2 428 kbps avg, 0.145 bit/pixel
Аудио №1 Rus: 44.1 KHz, AAC, 2 ch, 150.0 Kbps
Субтитры: нет
Навигация по главам: нет
GeneralComplete name : D:\Torrents\Download\V_chuzhom_ryadu.2002.D.BDRip.720p_KinoGadget.mp4Format : MPEG-4Format profile : Base MediaCodec ID : isomFile size : 1.78 GiBDuration : 1h 38mnOverall bit rate mode : VariableOverall bit rate : 2 585 KbpsMovie name : В чужом рядуPerformer : Роджер МишеллGenre : Drama, ThrillerRecorded date : 2002Encoded date : UTC 2015-06-27 14:13:58Tagged date : UTC 2015-06-27 15:10:45Cover : YesiTunEXTC : mpaa|R|400|

ldes : Машины Банека и Гипсона оказываются в соседних рядах на дороге. Гипсон слишком занят обдумыванием своей речи в суде, а Банека отвлекает звонок по мобильному телефону. Они не замечают машин друг друга, один неверный поворот, и вот уже Банек и Гипсон — виновники дорожно-транспортного происшествия. / / Жертв нет, однако ссора этих двух совершенно разных людей будет иметь большие последствия для каждого из них. Этот случай на дороге заставит двух незнакомцев развязать войну друг против друга. Со звериной ожесточенностью они будут пытаться отомстить друг другу, а гнев приведет каждого из них к краю самоуничтожения…hdvd : 1stik : 9

VideoID : 1Format : AVCFormat/Info : Advanced Video CodecFormat profile : [email protected] settings, CABAC : YesFormat settings, ReFrames : 11 framesCodec ID : avc1Codec ID/Info : Advanced Video CodingDuration : 1h 38mnBit rate : 2 428 KbpsMaximum bit rate : 6 851 KbpsWidth : 1 280 pixelsHeight : 544 pixelsDisplay aspect ratio : 2.35:1Frame rate mode : ConstantFrame rate : 23.976 fpsColor space : YUVChroma subsampling : 4:2:0Bit depth : 8 bitsScan type : ProgressiveBits/(Pixel*Frame) : 0.145Stream size : 1.67 GiB (94%)Writing library : x264 core 146 r2538 121396cEncoding settings : cabac=1 / ref=11 / deblock=1:-1:-1 / analyse=0x3:0x133 / me=umh / subme=9 / psy=1 / psy_rd=1.00:0.00 / mixed_ref=1 / me_range=24 / chroma_me=1 / trellis=2 / 8x8dct=1 / cqm=0 / deadzone=21,11 / fast_pskip=1 / chroma_qp_offset=-2 / threads=3 / lookahead_threads=1 / sliced_threads=0 / nr=0 / decimate=1 / interlaced=0 / bluray_compat=0 / constrained_intra=0 / bframes=4 / b_pyramid=2 / b_adapt=2 / b_bias=0 / direct=3 / weightb=1 / open_gop=0 / weightp=2 / keyint=240 / keyint_min=23 / scenecut=40 / intra_refresh=0 / rc_lookahead=60 / rc=crf / mbtree=1 / crf=21.0 / qcomp=0.60 / qpmin=0 / qpmax=69 / qpstep=4 / ip_ratio=1.40 / aq=1:1.50Encoded date : UTC 2015-06-26 08:26:36Tagged date : UTC 2015-06-27 14:15:33

AudioID : 2Format : AACFormat/Info : Advanced Audio CodecFormat profile : LCCodec ID : 40Duration : 1h 38mnBit rate mode : VariableBit rate : 150 KbpsMaximum bit rate : 205 KbpsChannel(s) : 2 channelsChannel positions : Front: L RSampling rate : 44.1 KHzCompression mode : LossyStream size : 106 MiB (6%)Language : RussianEncoded date : UTC 2015-06-27 14:14:49Tagged date : UTC 2015-06-27 14:15:33


Трекер:  [ 02-Ноя-2016 23:00 ]

  

Скачать .torrent

Размер .torrent файла 18 KB


Размер: 1.78 GB
Хэш (hash) релиза: 62f1368554af07a60812adc2b6d023f462be6e69

Еще никто не оставлял запись к записи скачать торрент [VIDEO] В чужом ряду Changing Lanes . Будь первым!

!Обратная связь