17-06-2018, 06:10 | Watch movie | Yuri Natsu -Kagaya Inn-

Скачать через торрент [VIDEO] Второй шанс Danny Collins бесплатно русская версия torrent активатор

Статистика раздачи
Размер:  1.45 GB   |    Зарегистрирован:  1 год 9 месяцев   |    .torrent скачан:  21 раз   |   
Раздают:  1  
   
загрузка...
 
Автор Сообщение

Galfimbul

avatar Galfimbul


Второй шанс / Danny Collins
«Письмо от Джона Леннона могло изменить его жизнь навсегда, но письмо он получил лишь сейчас»
Год выпуска: 19 марта 2015
Оригинальное название: Danny Collins
Страна: США
Жанр: драма
Возраст: 18+

Режиссер: Дэн Фогельман / Dan Fogelman

В ролях: Аль Пачино, Аннетт Бенинг, Дженнифер Гарнер, Бобби Каннавейл, Кристофер Пламмер, Мелисса Беноист, Ник Офферман, Джош Пек, Арти Манн, Катарина Час

Описание: Когда-то песни Дэнни Коллинза обожал весь мир. Однако уже много лет он ничего не пишет, почивая на лаврах былой славы. Но однажды музыканта находит адресованное ему много лет назад письмо от …Джона Леннона. И это переворачивает всю его жизнь.

Продолжительность: 01:47:10
Перевод: Дублированный
Оригинальная дорожка: нет

Качество видео: BDRip Формат: mp4
Видео кодек: MPEG-4 AVC Аудио кодек: AAC
Видео: 1280x536 at 23.976 fps, AVC at 1 783 kbps avg, 0.108 bit/pixel
Аудио №1 Rus: 44.1 KHz, AAC, 2 ch, 150.0 Kbps
Субтитры: нет
Навигация по главам: нет
GeneralComplete name : D:\Torrents\Download\Vtoroj_shans.2015.D.BDRip.720p_KinoGadget.mp4Format : MPEG-4Format profile : Base MediaCodec ID : isomFile size : 1.45 GiBDuration : 1h 47mnOverall bit rate mode : VariableOverall bit rate : 1 940 KbpsMovie name : Второй шансPerformer : Дэн ФогельманGenre : Comedy, Drama, MusicRecorded date : 2015Encoded date : UTC 2015-06-27 14:59:50Tagged date : UTC 2015-06-27 15:36:41Cover : YesiTunEXTC : mpaa|R|400|

ldes : Когда-то песни Дэнни Коллинза обожал весь мир. Однако уже много лет он ничего не пишет, почивая на лаврах былой славы. Но однажды музыканта находит адресованное ему много лет назад письмо от …Джона Леннона. И это переворачивает всю его жизнь.hdvd : 1stik : 9

VideoID : 1Format : AVCFormat/Info : Advanced Video CodecFormat profile : [email protected] settings, CABAC : YesFormat settings, ReFrames : 11 framesCodec ID : avc1Codec ID/Info : Advanced Video CodingDuration : 1h 47mnBit rate : 1 783 KbpsMaximum bit rate : 5 863 KbpsWidth : 1 280 pixelsHeight : 536 pixelsDisplay aspect ratio : 2.40:1Frame rate mode : ConstantFrame rate : 23.976 fpsColor space : YUVChroma subsampling : 4:2:0Bit depth : 8 bitsScan type : ProgressiveBits/(Pixel*Frame) : 0.108Stream size : 1.33 GiB (92%)Writing library : x264 core 146 r2538 121396cEncoding settings : cabac=1 / ref=11 / deblock=1:-1:-1 / analyse=0x3:0x133 / me=umh / subme=9 / psy=1 / psy_rd=1.00:0.00 / mixed_ref=1 / me_range=24 / chroma_me=1 / trellis=2 / 8x8dct=1 / cqm=0 / deadzone=21,11 / fast_pskip=1 / chroma_qp_offset=-2 / threads=3 / lookahead_threads=1 / sliced_threads=0 / nr=0 / decimate=1 / interlaced=0 / bluray_compat=0 / constrained_intra=0 / bframes=4 / b_pyramid=2 / b_adapt=2 / b_bias=0 / direct=3 / weightb=1 / open_gop=0 / weightp=2 / keyint=240 / keyint_min=23 / scenecut=40 / intra_refresh=0 / rc_lookahead=60 / rc=crf / mbtree=1 / crf=21.0 / qcomp=0.60 / qpmin=0 / qpmax=69 / qpstep=4 / ip_ratio=1.40 / aq=1:1.50Encoded date : UTC 2015-06-27 04:54:27Tagged date : UTC 2015-06-27 15:01:57

AudioID : 2Format : AACFormat/Info : Advanced Audio CodecFormat profile : LCCodec ID : 40Duration : 1h 47mnBit rate mode : VariableBit rate : 150 KbpsMaximum bit rate : 242 KbpsChannel(s) : 2 channelsChannel positions : Front: L RSampling rate : 44.1 KHzCompression mode : LossyStream size : 115 MiB (8%)Language : RussianEncoded date : UTC 2015-06-27 15:01:23Tagged date : UTC 2015-06-27 15:01:57


Трекер:  [ 02-Ноя-2016 23:00 ]

  

Скачать .torrent

Размер .torrent файла 15 KB


Размер: 1.45 GB
Хэш (hash) релиза: 60b1d014b950401ab41f0e11b2a1db37995247ce

Торренты, похожие на [VIDEO] Второй шанс Danny Collins скачать торрент

Форум Название Автор Размер S L Добавлен
Видео (Фильмы/Клипы) ·· [VIDEO] Второй шанс / Danny Collins (Дэн Фогельман / Dan Fogelman) [2015, драма, комедия, музыка, WEB-DLRip] [MP4, 960x] Dub iTunes Galfimbul 868120207828 MB 0 0 1434653055

21:44

18-Июн-15

Еще никто не оставлял запись к записи скачать торрент [VIDEO] Второй шанс Danny Collins . Будь первым!

!Обратная связь