Allavsoft Video Downloader Converter 3 15 8 6742 + Keygen [CracksMind] | ♫Samba Pra Gente | Criminal Minds: Team Red

Скачать через торрент [VIDEO] Форсаж 7 Furious Seven бесплатно русская версия torrent активатор

Статистика раздачи
Размер:  2.05 GB   |    Зарегистрирован:  1 год 8 месяцев   |    .torrent скачан:  52 раза   |   
Раздают:  1  
   
загрузка...
 
Автор Сообщение

Galfimbul

avatar Galfimbul


Форсаж 7 / Furious Seven
«Месть не знает границ»
Год выпуска: 16 марта 2015
Оригинальное название: Furious Seven
Страна: США
Жанр: боевик, триллер, криминал
Возраст: 16+

Режиссер: Джеймс Ван / James Wan

В ролях: Вин Дизель, Пол Уокер, Джейсон Стэйтем, Мишель Родригес, Дуэйн Джонсон, Тайриз Гибсон, Лудакрис, Натали Эммануэль, Джордана Брюстер, Курт Рассел

Описание: Они покорили Токио и Рио, Лос-Анджелес и Лондон. Но мир больше не играет по их правилам. Зной арабских пустынь, неприлично высокие небоскребы, миллионы долларов на колесах и очень, очень знаменитый злодей. Скорость не знает границ.

Продолжительность: 02:17:19
Перевод: Дублированный [Лицензия]
Оригинальная дорожка: нет

Качество видео: BDRip Исходник: Blu-Ray Remux (1080p) Формат: mp4
Видео кодек: MPEG-4 AVC Аудио кодек: AAC
Видео: 1280x532 at 23.976 fps, AVC at 1 999 kbps avg, 0.122 bit/pixel
Аудио №1 Rus: 48.0 KHz, AAC, 2 ch, 128.0 Kbps
Субтитры: нет
Навигация по главам: нет
avs [info]: 1280x532p 1:1 @ 24000/1001 fps (cfr)
x264 [info]: using SAR=1/1
x264 [info]: using cpu capabilities: MMX2 SSE2Fast SSSE3 Cache64
x264 [info]: profile High, level 4.1
x264 [info]: frame I:2148 Avg QP:17.72 size: 79389
x264 [info]: frame P:54030 Avg QP:21.24 size: 18817
x264 [info]: frame B:141374 Avg QP:23.09 size: 6169
x264 [info]: consecutive B-frames: 5.8% 5.9% 13.8% 27.3% 16.1% 26.8% 3.0% 0.8% 0.6%
x264 [info]: mb I I16..4: 11.7% 67.8% 20.5%
x264 [info]: mb P I16..4: 5.3% 17.9% 2.0% P16..4: 39.4% 10.9% 9.2% 0.4% 0.1% skip:14.7%
---[Information] [02.11.2016 10:46:25] x264 [info]: mb B I16..4: 0.4% 1.5% 0.3% B16..8: 38.4% 6.0% 1.1% direct: 3.8% skip:48.3% L0:43.7% L1:49.1% BI: 7.2%
x264 [info]: 8x8 transform intra:70.3% inter:77.6%
x264 [info]: direct mvs spatial:99.9% temporal:0.1%
x264 [info]: coded y,uvDC,uvAC intra: 57.2% 71.1% 36.2% inter: 14.6% 21.5% 2.0%
x264 [info]: i16 v,h,dc,p: 29% 24% 7% 40%
x264 [info]: i8 v,h,dc,ddl,ddr,vr,hd,vl,hu: 18% 19% 22% 5% 7% 7% 8% 6% 7%
x264 [info]: i4 v,h,dc,ddl,ddr,vr,hd,vl,hu: 29% 19% 12% 5% 8% 7% 8% 5% 5%
x264 [info]: i8c dc,h,v,p: 53% 22% 18% 7%
x264 [info]: Weighted P-Frames: Y:5.5% UV:2.7%
x264 [info]: ref P L0: 53.2% 13.5% 14.3% 5.7% 4.0% 3.0% 2.3% 1.9% 1.6% 0.4% 0.0%
x264 [info]: ref B L0: 81.8% 8.4% 4.1% 2.1% 1.5% 1.1% 0.7% 0.3%
x264 [info]: ref B L1: 94.5% 5.5%
x264 [info]: kb/s:1999.52
encoded 197552 frames, 2.56 fps, 1999.52 kb/s
GeneralComplete name : D:\Torrents\Download\Forsazh_7_2015_KinoGadget.mp4Format : MPEG-4Format profile : Base MediaCodec ID : isomFile size : 2.05 GiBDuration : 2h 17mnOverall bit rate mode : VariableOverall bit rate : 2 136 KbpsMovie name : Форсаж 7Performer : Джеймс ВанGenre : Action, Crime, ThrillerRecorded date : 2015Encoded date : UTC 2016-11-02 08:30:55Tagged date : UTC 2016-11-02 09:08:30Cover : YesiTunEXTC : mpaa|PG-13|300|

ldes : Они покорили Токио и Рио, Лос-Анджелес и Лондон. Но мир больше не играет по их правилам. Зной арабских пустынь, неприлично высокие небоскребы, миллионы долларов на колесах и очень, очень знаменитый злодей. Скорость не знает границ.hdvd : 1stik : 9

VideoID : 1Format : AVCFormat/Info : Advanced Video CodecFormat profile : [email protected] settings, CABAC : YesFormat settings, ReFrames : 9 framesCodec ID : avc1Codec ID/Info : Advanced Video CodingDuration : 2h 17mnBit rate : 1 999 KbpsMaximum bit rate : 13.6 MbpsWidth : 1 280 pixelsHeight : 532 pixelsDisplay aspect ratio : 2.40:1Frame rate mode : ConstantFrame rate : 23.976 fpsColor space : YUVChroma subsampling : 4:2:0Bit depth : 8 bitsScan type : ProgressiveBits/(Pixel*Frame) : 0.122Stream size : 1.92 GiB (94%)Writing library : x264 core 148 r2638 7599210Encoding settings : cabac=1 / ref=9 / deblock=1:-1:-1 / analyse=0x3:0x133 / me=umh / subme=7 / psy=1 / psy_rd=1.00:0.15 / mixed_ref=1 / me_range=24 / chroma_me=1 / trellis=2 / 8x8dct=1 / cqm=0 / deadzone=21,11 / fast_pskip=1 / chroma_qp_offset=-3 / threads=3 / lookahead_threads=1 / sliced_threads=0 / nr=0 / decimate=1 / interlaced=0 / bluray_compat=0 / constrained_intra=0 / bframes=8 / b_pyramid=2 / b_adapt=2 / b_bias=0 / direct=3 / weightb=1 / open_gop=0 / weightp=2 / keyint=240 / keyint_min=23 / scenecut=40 / intra_refresh=0 / rc_lookahead=60 / rc=crf / mbtree=1 / crf=21.0 / qcomp=0.60 / qpmin=0 / qpmax=69 / qpstep=4 / ip_ratio=1.40 / aq=1:1.00Encoded date : UTC 2016-11-02 07:05:00Tagged date : UTC 2016-11-02 08:32:04

AudioID : 2Format : AACFormat/Info : Advanced Audio CodecFormat profile : LCCodec ID : 40Duration : 2h 17mnBit rate mode : VariableBit rate : 128 KbpsMaximum bit rate : 135 KbpsChannel(s) : 2 channelsChannel positions : Front: L RSampling rate : 48.0 KHzCompression mode : LossyStream size : 126 MiB (6%)Language : RussianEncoded date : UTC 2016-11-02 07:34:19Tagged date : UTC 2016-11-02 08:32:04


Трекер:  [ 02-Ноя-2016 12:30 ]

  

Скачать .torrent

Размер .torrent файла 10 KB


Размер: 2.05 GB
Хэш (hash) релиза: 8d5430ffa4be10f25f34d03945182d4d8f4e8548

Еще никто не оставлял запись к записи скачать торрент [VIDEO] Форсаж 7 Furious Seven . Будь первым!

!Обратная связь