Adobe Premiere Pro CC 2018 v12 1 + Crack
Coraline FRENCH HDlight 1080p 2009

Скачать через торрент [VIDEO] Кровный отец Blood Father бесплатно русская версия torrent активатор

Статистика раздачи
Размер:  1.44 GB   |    Зарегистрирован:  1 год 5 месяцев   |    .torrent скачан:  29 раз   |   
Раздают:  1  
   
загрузка...
 
Автор Сообщение

Galfimbul

avatar Galfimbul


Кровный отец / Blood Father
«A Father Makes His Own Justice»
Год выпуска: 21 мая 2016
Оригинальное название: Blood Father
Страна: Франция
Жанр: боевик, триллер, криминал
Возраст: 16+

Режиссер: Жан-Франсуа Рише / Jean-François Richet

В ролях: Мэл Гибсон, Эрин Мориарти, Диего Луна, Майкл Паркс, Уильям Х. Мэйси, Мигель Сандовал, Дейл Дикки, Ричард Кебрал, Дэниэл Монкада, Райан Дорси

Описание: 17-летняя девушка попадает в серьёзные неприятности, и теперь за ней охотятся убийцы наркокартеля. Из близких у неё только отец — завязавший алкоголик и бывший заключённый, который даже особо не видел свою дочь и не принимал участия в её воспитании. Но родственников не выбирают, и девушке приходится обратиться к нему за помощью.

Продолжительность: 01:28:12
Перевод: Профессиональный многоголосый [Студия "Paradox" & Omskbird records.]
Оригинальная дорожка: нет

Качество видео: BDRip Исходник: Blu-Ray Remux (1080p) Формат: mp4
Видео кодек: MPEG-4 AVC Аудио кодек: AAC
Видео: 1280x536 at 23.976 fps, AVC at 2 196 kbps avg, 0.133 bit/pixel
Аудио №1 Rus: 48.0 KHz, AAC, 2 ch, 128.0 Kbps
Субтитры: нет
Навигация по главам: нет
avs [info]: 1280x536p 1:1 @ 24000/1001 fps (cfr)
x264 [info]: using SAR=1/1
x264 [info]: using cpu capabilities: MMX2 SSE2Fast SSSE3 Cache64
x264 [info]: profile High, level 4.1
x264 [info]: frame I:1346 Avg QP:16.66 size:110329
x264 [info]: frame P:26241 Avg QP:20.12 size: 25271
x264 [info]: frame B:99311 Avg QP:22.17 size: 6456
x264 [info]: consecutive B-frames: 2.0% 2.2% 7.1% 17.7% 19.3% 35.3% 7.3% 6.0% 3.1%
x264 [info]: mb I I16..4: 11.9% 68.1% 20.0%
x264 [info]: mb P I16..4: 2.1% 10.2% 1.2% P16..4: 44.0% 15.2% 13.1% 0.5% 0.2% skip:13.5%
x264 [info]: mb B I16..4: 0.1% 0.7% 0.1% B16..8: 41.9% 6.1% 1.4% direct: 3.6% skip:46.1% L0:45.6% L1:47.8% BI: 6.5%
x264 [info]: 8x8 transform intra:73.7% inter:71.1%
x264 [info]: direct mvs spatial:100.0% temporal:0.0%
x264 [info]: coded y,uvDC,uvAC intra: 72.8% 81.8% 53.9% inter: 16.1% 21.2% 1.6%
x264 [info]: i16 v,h,dc,p: 34% 16% 11% 39%
x264 [info]: i8 v,h,dc,ddl,ddr,vr,hd,vl,hu: 19% 14% 23% 5% 8% 8% 8% 8% 7%
x264 [info]: i4 v,h,dc,ddl,ddr,vr,hd,vl,hu: 21% 15% 13% 7% 11% 10% 9% 8% 7%
x264 [info]: i8c dc,h,v,p: 50% 19% 21% 10%
x264 [info]: Weighted P-Frames: Y:4.3% UV:2.2%
x264 [info]: ref P L0: 47.9% 12.3% 17.4% 6.1% 5.2% 3.6% 3.3% 1.9% 2.0% 0.3% 0.0%
x264 [info]: ref B L0: 78.1% 10.2% 4.9% 2.6% 1.7% 1.4% 0.8% 0.3%
x264 [info]: ref B L1: 93.4% 6.6%
x264 [info]: kb/s:2195.91
encoded 126898 frames, 2.49 fps, 2195.91 kb/s
GeneralComplete name : D:\Torrents\Download\Krovnyj_otec_2016_KinoGadget.mp4Format : MPEG-4Format profile : Base MediaCodec ID : isomFile size : 1.44 GiBDuration : 1h 28mnOverall bit rate mode : VariableOverall bit rate : 2 332 KbpsMovie name : Кровный отецPerformer : Жан-Франсуа РишеGenre : Action, ThrillerRecorded date : 2016Encoded date : UTC 2016-10-30 06:57:27Tagged date : UTC 2016-10-30 07:05:30Cover : YesiTunEXTC : mpaa|R|400|

ldes : 17-летняя девушка попадает в серьёзные неприятности, и теперь за ней охотятся убийцы наркокартеля. Из близких у неё только отец — завязавший алкоголик и бывший заключённый, который даже особо не видел свою дочь и не принимал участия в её воспитании. Но родственников не выбирают, и девушке приходится обратиться к нему за помощью.hdvd : 1stik : 9

VideoID : 1Format : AVCFormat/Info : Advanced Video CodecFormat profile : [email protected] settings, CABAC : YesFormat settings, ReFrames : 9 framesCodec ID : avc1Codec ID/Info : Advanced Video CodingDuration : 1h 28mnBit rate : 2 196 KbpsMaximum bit rate : 16.2 MbpsWidth : 1 280 pixelsHeight : 536 pixelsDisplay aspect ratio : 2.40:1Frame rate mode : ConstantFrame rate : 23.976 fpsColor space : YUVChroma subsampling : 4:2:0Bit depth : 8 bitsScan type : ProgressiveBits/(Pixel*Frame) : 0.133Stream size : 1.35 GiB (94%)Writing library : x264 core 148 r2638 7599210Encoding settings : cabac=1 / ref=9 / deblock=1:-1:-1 / analyse=0x3:0x133 / me=umh / subme=7 / psy=1 / psy_rd=1.00:0.15 / mixed_ref=1 / me_range=24 / chroma_me=1 / trellis=2 / 8x8dct=1 / cqm=0 / deadzone=21,11 / fast_pskip=1 / chroma_qp_offset=-3 / threads=3 / lookahead_threads=1 / sliced_threads=0 / nr=0 / decimate=1 / interlaced=0 / bluray_compat=0 / constrained_intra=0 / bframes=8 / b_pyramid=2 / b_adapt=2 / b_bias=0 / direct=3 / weightb=1 / open_gop=0 / weightp=2 / keyint=240 / keyint_min=23 / scenecut=40 / intra_refresh=0 / rc_lookahead=60 / rc=crf / mbtree=1 / crf=20.0 / qcomp=0.60 / qpmin=0 / qpmax=69 / qpstep=4 / ip_ratio=1.40 / aq=1:1.00Encoded date : UTC 2016-10-29 17:25:26Tagged date : UTC 2016-10-30 06:59:11

AudioID : 2Format : AACFormat/Info : Advanced Audio CodecFormat profile : LCCodec ID : 40Duration : 1h 28mnBit rate mode : VariableBit rate : 128 KbpsMaximum bit rate : 135 KbpsChannel(s) : 2 channelsChannel positions : Front: L RSampling rate : 48.0 KHzCompression mode : LossyStream size : 80.8 MiB (5%)Language : RussianEncoded date : UTC 2016-10-30 06:47:08Tagged date : UTC 2016-10-30 06:59:11


Трекер:  [ 30-Окт-2016 10:30 ]

  

Скачать .torrent

Размер .torrent файла 15 KB


Размер: 1.44 GB
Хэш (hash) релиза: 58e28852b973ee5f1969dad0381e9264867ba50d

Еще никто не оставлял запись к записи скачать торрент [VIDEO] Кровный отец Blood Father . Будь первым!

!Обратная связь